BitTorrentTracker PerecTracker.org
BitTorrentTracker PerecTracker.org
    
Регистрация  ·  Вход
 
 · 
Забыли пароль?

  • Абатуар. Лабиринт страха / Abattoir (2016) HDRip [звук с TS]

    Ответить на тему
     
    Автор Сообщение

    rechyn

    Создавать темы 26-Ноя-2016 22:02

           

    [Цитировать]

    Абатуар. Лабиринт страха / Abattoir (2016) HDRip -Производство: США
    Жанр: Ужасы, Триллер
    Режиссер: Даррен Линн Боусман
    Продюсер: Джесси Бергер, Брент С. Джонсон, Йохан Байада
    Актеры: Джессика Лаундес, Джо Андерсон, Дэйтон Калли, Лин Шэй, Джон МакКоннелл, Брайан Бэтт, Майкл Паре, Дж. ЛаРоуз, Джеки Таттл, Джэй Хьюджули.
    Описание:
    Вернувшись в дом, где была жестоко убита ее семья, Джулия обнаруживает, что комната, где произошло преступление, исчезла. Со своим парнем Декланом она выясняет, что такое случалось и с другими домами, где происходили страшные события. В это время в затерянном на карте месте некто строит настоящий ад на земле — чудовищное строение с уходящим в бесконечность лабиринтом жутких комнат, населенных призраками. Единственный способ разгадать тайну гибели семьи — это открыть двери страшного дома и пройти через все его ловушки. За ними скрывается правда, еще более ужасная, чем предполагала Джулия.

    Возраст: 16+ (зрителям, достигшим 16 лет)
    Рейтинг MPAA: R (лицам до 17 лет обязательно присутствие взрослого)
    Дата мировой премьеры: 7 июня 2016
    Дата российской премьеры: 24 ноября 2016, «Экспонента»
    Релиз от: KOSHARA
    Продолжительность: 01:38:27
    Качество видео: HDRip
    Перевод: Дублированный (звук с TS)
    Субтитры: Отсутствуют
    Реклама: Присутствуют аудио, текстовые вставки рекламы. Начальный рекламный видеоролик вырезан.

    Видео: Xvid, 720x304, 23.976 fps, ~1768 Kbps
    Аудио: AC3, 2 ch, 192 Kbps, CBR

    Mediainfo:

    Общее
    Полное имя : D:\Фильмы\Мои раздачи\Абатуар. Лабиринт страха\Абатуар. Лабиринт страха.2016.Dt.HDRip.1400MB.avi
    Формат : AVI
    Формат/Информация : Audio Video Interleave
    Размер файла : 1,35 Гбайт
    Продолжительность : 1 ч. 38 м.
    Общий поток : 1969 Кбит/сек
    Библиотека кодирования : Boilsoft Joiner build 2411/release
    Видео
    Идентификатор : 0
    Формат : MPEG-4 Visual
    Профиль формата : Advanced Simple@L5
    Параметр BVOP формата : 2
    Параметр QPel формата : Нет
    Параметр GMC формата : Без точки перехода
    Параметр матрицы формата : Выборочная
    Идентификатор кодека : XVID
    Идентификатор кодека/Подсказка : XviD
    Продолжительность : 1 ч. 38 м.
    Битрейт : 1768 Кбит/сек
    Ширина : 720 пикселей
    Высота : 304 пикселя
    Соотношение сторон : 2,35:1
    Частота кадров : 23,976 кадра/сек
    Цветовое пространство : YUV
    Субдискретизация насыщенности : 4:2:0
    Битовая глубина : 8 бит
    Тип развёртки : Прогрессивная
    Метод сжатия : С потерями
    Бит/(Пиксели*Кадры) : 0.337
    Размер потока : 1,22 Гбайт (90%)
    Библиотека кодирования : XviD 1.2.1 (UTC 2008-12-04)
    Аудио
    Идентификатор : 1
    Формат : AC-3
    Формат/Информация : Audio Coding 3
    Расширение режима : CM (complete main)
    Параметр Endianness формата : Big
    Идентификатор кодека : 2000
    Продолжительность : 1 ч. 38 м.
    Вид битрейта : Постоянный
    Битрейт : 192 Кбит/сек
    Каналы : 2 канала
    Расположение каналов : Front: L R
    Частота : 48,0 КГц
    Битовая глубина : 16 бит
    Метод сжатия : С потерями
    Задержка видео : 30 мс.
    Размер потока : 135 Мбайт (10%)
    Выравнивание : Разделение по промежуткам
    Продолжительность промежутка : 42 мс. (1,00 видеокадр)
    Время предзагрузки промежутка : 500 мс.

    Скриншоты:
    Скачать .torrent

    Скачать торрент-файл бесплатно и на максимальной скорости!

    Как скачивать? · Что такое торрент? · Рейтинг и ограничения

    !ВНИМАНИЕ!
    Сайт не распространяет и не хранит электронные версии произведений, а занимается лишь лишь предоставлением доступа к создаваемому пользователями каталогу ссылок на торрент-файлы, которые содержат только списки хеш-сумм, убедительная просьба с жалобами обращаться напрямую к пользователю. Файлы для обмена на трекере предоставлены пользователями сайта, и администрация не несёт ответственности за их содержание. Просьба не заливать файлы, защищенные авторскими правами, а также файлы нелегального содержания!


    _________________
    [Профиль] [ЛС]
    Показать сообщения:    
    Ответить на тему

    Текущее время: Сегодня, в 18:31

    Часовой пояс: GMT + 2



    Вы не можете начинать темы
    Вы не можете отвечать на сообщения
    Вы не можете редактировать свои сообщения
    Вы не можете удалять свои сообщения
    Вы не можете голосовать в опросах
    Вы не можете прикреплять файлы к сообщениям
    Вы не можете скачивать файлы