BitTorrentTracker PerecTracker.org
BitTorrentTracker PerecTracker.org
    
Регистрация  ·  Вход
 
 · 
Забыли пароль?

  • [ATV3] Дуэлянт (Алексей Мизгирёв) [2016, Россия, Драма, WEB-DL, HD (1080p)] Original

    Ответить на тему
     
    Автор Сообщение

    rechyn

    Создавать темы 26-Ноя-2016 18:05

           

    [Цитировать]

    Дуэлянт
    «На темной стороне чести»
    -Год выпуска: 2016
    Страна: Россия
    Жанр: Драма
    Продолжительность: 01:44:43
    Перевод: Не требуется
    Оригинальная аудиодорожка: Есть
    Cубтитры: Нет
    Режиссёр: Алексей Мизгирёв
    Сценарий: Алексей Мизгирёв
    Продюсер: Александр Роднянский, Сергей Мелькумов, Глеб Фетисов
    Оператор: Максим Осадчий
    Композитор: Игорь Вдовин
    Художник: Андрей Понкратов, Татьяна Патрахальцева, Николай Рябцев
    Монтаж: Игорь Литонинский
    В ролях: Пётр Фёдоров, Владимир Машков, Юлия Хлынина, Франциска Петри, Мартин Вуттке, Сергей Гармаш, Павел Табаков, Юрий Колокольников, Александр Яценко, Юрий Кузнецов
    Бюджет: 725 000 000 руб.
    Сборы в России: $5 866 723
    Мировая премьера: 9 сентября 2016
    Премьера (РФ): 29 сентября 2016, «WDSSPR»
    Описание: В центре сюжета профессиональный дуэлянт, который зарабатывает на жизнь, участвуя в поединках за других людей.-Качество исходника: WEB-DL 1080p (BlueBird)
    Качество: WEB-DL
    Тип: HD (1080p)
    Контейнер: M4V
    Видео: H.264, 1920x810, 2.40:1, 4 567 Kbps, 25.000 fps
    Аудио: Русский/Оригинальная дорожка , AAC / 2.0 / 160 Kbps / 48.0 KHz
    -

    iTunes Meta Tags

    Sort Name: ДУЭЛЯНТ
    XID: Apple:vendor_id:2016-840234
    contentID: 1169309394
    Screenwriters: Алексей Мизгирёв
    Producers: Александр Роднянский, Сергей Мелькумов, Глеб Фетисов
    Director: Алексей Мизгирёв
    Cast: Пётр Фёдоров, Владимир Машков, Юлия Хлынина, Франциска Петри, Мартин Вуттке, Сергей Гармаш, Павел Табаков, Юрий Колокольников, Александр Яценко, Юрий Кузнецов
    Studio: Non-Stop Production
    Rating: 135
    Long Description: В центре сюжета профессиональный дуэлянт, который зарабатывает на жизнь, участвуя в поединках за других людей.
    Description: В центре сюжета профессиональный дуэлянт, который зарабатывает на жизнь, участвуя в поединках за других людей.
    Release Date: 2016-09-09T08:00:00Z
    Genre: Боевики и приключения
    Artist: Alexei Mizgirev
    Name: ДУЭЛЯНТ

    MediaInfo

    General
    Complete name                            : /Users/imac/HandBrake/Duelyant.WEB-DL.1080p.m4v
    Format                                   : MPEG-4
    Codec ID                                 : M4V  (M4V /M4A /mp42/isom)
    File size                                : 3.46 GiB
    Duration                                 : 1h 44mn
    Overall bit rate mode                    : Variable
    Overall bit rate                         : 4 732 Kbps
    Movie name                               : ДУЭЛЯНТ
    Performer                                : Alexei Mizgirev
    Director                                 : Алексей Мизгирёв
    Actor                                    : Пётр Фёдоров / Владимир Машков / Юлия Хлынина / Франциска Петри / Мартин Вуттке / Сергей Гармаш / Павел Табаков / Юрий Колокольников / Александр Яценко / Юрий Кузнецов
    Screenplay by                            : Алексей Мизгирёв
    Producer                                 : Александр Роднянский / Сергей Мелькумов / Глеб Фетисов
    Production studio                        : Non-Stop Production
    Genre                                    : Боевики и приключения
    ContentType                              : Short Film
    Description                              : В центре сюжета профессиональный дуэлянт, который зарабатывает на жизнь, участвуя в поединках за других людей.
    Recorded date                            : UTC 2016-09-09 08:00:00
    Encoded date                             : UTC 2016-11-02 13:23:32
    Tagged date                              : UTC 2016-11-02 13:25:03
    Cover                                    : Yes
    Rating                                   : None
    Title/Sort                               : ДУЭЛЯНТ
    LongDescription                          : В центре сюжета профессиональный дуэлянт, который зарабатывает на жизнь, участвуя в поединках за других людей.
    AppleStoreCatalogID                      : 1169309394
    Vendor                                   : Apple:vendor_id:2016-840234
    ContentRating                            : ru-movie|16+|375|
    Video #1
    ID                                       : 1
    Format                                   : AVC
    Format/Info                              : Advanced Video Codec
    Format profile                           : High@L4
    Format settings, CABAC                   : Yes
    Format settings, ReFrames                : 5 frames
    Codec ID                                 : avc1
    Codec ID/Info                            : Advanced Video Coding
    Duration                                 : 1h 44mn
    Bit rate                                 : 4 567 Kbps
    Width                                    : 1 920 pixels
    Height                                   : 810 pixels
    Display aspect ratio                     : 2.40:1
    Frame rate mode                          : Constant
    Frame rate                               : 25.000 fps
    Color space                              : YUV
    Chroma subsampling                       : 4:2:0
    Bit depth                                : 8 bits
    Scan type                                : Progressive
    Bits/(Pixel*Frame)                       : 0.117
    Stream size                              : 3.34 GiB (97%)
    Title                                    : Main Program
    Language                                 : Russian
    Encoded date                             : UTC 2016-11-02 13:23:32
    Tagged date                              : UTC 2016-11-02 13:24:17
    Color range                              : Limited
    Color primaries                          : BT.709
    Transfer characteristics                 : BT.709
    Matrix coefficients                      : BT.709
    Menus                                    : 3,4
    Video #2
    ID                                       : 4
    Format                                   : JPEG
    Codec ID                                 : jpeg
    Duration                                 : 1h 44mn
    Bit rate mode                            : Variable
    Bit rate                                 : 1 080 bps
    Width                                    : 640 pixels
    Height                                   : 270 pixels
    Display aspect ratio                     : 2.40:1
    Frame rate mode                          : Variable
    Frame rate                               : 0.003 fps
    Minimum frame rate                       : 0.002 fps
    Maximum frame rate                       : 0.004 fps
    Color space                              : YUV
    Chroma subsampling                       : 4:2:0
    Bit depth                                : 8 bits
    Compression mode                         : Lossy
    Bits/(Pixel*Frame)                       : 2.083
    Stream size                              : 703 KiB (0%)
    Title                                    : Chapter Images
    Language                                 : Russian
    Default                                  : No
    Encoded date                             : UTC 2016-11-02 13:24:22
    Tagged date                              : UTC 2016-11-02 13:24:23
    Menu For                                 : 1
    Audio
    ID                                       : 2
    Format                                   : AAC
    Format/Info                              : Advanced Audio Codec
    Format profile                           : LC
    Codec ID                                 : 40
    Duration                                 : 1h 44mn
    Bit rate mode                            : Variable
    Bit rate                                 : 158 Kbps
    Maximum bit rate                         : 237 Kbps
    Channel(s)                               : 2 channels
    Channel positions                        : Front: L R
    Sampling rate                            : 48.0 KHz
    Frame rate                               : 46.875 fps (1024 spf)
    Compression mode                         : Lossy
    Stream size                              : 118 MiB (3%)
    Title                                    : Russian Stereo
    Language                                 : Russian
    Default                                  : Yes
    Alternate group                          : 1
    Encoded date                             : UTC 2016-11-02 13:23:32
    Tagged date                              : UTC 2016-11-02 13:23:36
    Menu #1
    00:00:00.000                             : 1
    00:06:46.560                             : 2
    00:14:28.240                             : 3
    00:21:11.040                             : 4
    00:26:11.000                             : 5
    00:30:12.000                             : 6
    00:36:18.960                             : 7
    00:43:45.240                             : 8
    00:49:11.720                             : 9
    00:56:21.320                             : 10
    01:02:33.280                             : 11
    01:08:04.240                             : 12
    01:13:35.240                             : 13
    01:20:05.440                             : 14
    01:27:22.320                             : 15
    01:34:01.040                             : 16
    Menu #2
    ID                                       : 3
    Codec ID                                 : text
    Duration                                 : 1h 44mn
    Language                                 : Russian
    Encoded date                             : UTC 2016-11-02 13:24:17
    Tagged date                              : UTC 2016-11-02 13:24:17
    Menu For                                 : 1
    00:00:00.000                             : 1
    00:06:46.560                             : 2
    00:14:28.240                             : 3
    00:21:11.040                             : 4
    00:26:11.000                             : 5
    00:30:12.000                             : 6
    00:36:18.960                             : 7
    00:43:45.240                             : 8
    00:49:11.720                             : 9
    00:56:21.320                             : 10
    01:02:33.280                             : 11
    01:08:04.240                             : 12
    01:13:35.240                             : 13
    01:20:05.440                             : 14
    01:27:22.320                             : 15
    01:34:01.040                             : 16
    Bit rate mode                            : VBR

    Скриншоты

    -

    Релиз подготовлен для просмотра на Apple TV, iPad, iPhone, iPod Touch.
    Для просмотра данного релиза на компьютере с ОС Windows рекомендуется использовать VLC media player
    Скачать .torrent

    Скачать торрент-файл бесплатно и на максимальной скорости!

    Как скачивать? · Что такое торрент? · Рейтинг и ограничения

    !ВНИМАНИЕ!
    Сайт не распространяет и не хранит электронные версии произведений, а занимается лишь лишь предоставлением доступа к создаваемому пользователями каталогу ссылок на торрент-файлы, которые содержат только списки хеш-сумм, убедительная просьба с жалобами обращаться напрямую к пользователю. Файлы для обмена на трекере предоставлены пользователями сайта, и администрация не несёт ответственности за их содержание. Просьба не заливать файлы, защищенные авторскими правами, а также файлы нелегального содержания!


    _________________
    [Профиль] [ЛС]
    Показать сообщения:    
    Ответить на тему

    Текущее время: Сегодня, в 20:09

    Часовой пояс: GMT + 2



    Вы не можете начинать темы
    Вы не можете отвечать на сообщения
    Вы не можете редактировать свои сообщения
    Вы не можете удалять свои сообщения
    Вы не можете голосовать в опросах
    Вы не можете прикреплять файлы к сообщениям
    Вы не можете скачивать файлы