BitTorrentTracker PerecTracker.org
BitTorrentTracker PerecTracker.org
    
Регистрация  ·  Вход
 
 · 
Забыли пароль?

  • Макс Стил / Max Steel (2016) CamRip

    Ответить на тему
     
    Автор Сообщение

    rechyn

    Создавать темы 26-Ноя-2016 17:06

           

    [Цитировать]

    Макс Стил / Max Steel (2016) CamRip -Производство: Великобритания, США
    Жанр: Фантастика, Боевик, Приключения
    Режиссер: Стюарт Хендлер
    Продюсер: Билл О’Дауд, Джулия Пистор, Charlie Cohen
    Актеры: Бен Уинчелл, Джош Бренер, Мария Белло, Энди Гарсиа, Ана Виллафейн, Майк Дойл, Филлип ДеВона, Билли Слотер, Эл Митчелл, Лоуренс Као
    Описание:
    Когда подросток Макс МакГрат обнаруживает, что его тело может генерировать наиболее мощную энергию во Вселенной, ему приходится встретиться с единственным существом, способным совладать с такой энергией — таинственным техно-органическим инопланетянином по имени Стил.

    Рейтинг MPAA: PG-13 (детям до 13 лет просмотр нежелателен)
    Дата мировой премьеры: 13 октября 2016
    Дата российской премьеры: 27 октября 2016, «Централ Партнершип»
    Продолжительность: 01:26:26
    Качество видео: CamRip
    Перевод: Дублированный
    Реклама: присутствуют аудио и видео вставки рекламы.
    Видео: Xvid, 720х304, 1870 Кбит/сек
    Аудио: AC3, 2 ch, 384 Кбит/сек

    Mediainfo:

    Maks.CteLL.2016.D.CAMRip.1400MB.avi
    Формат : AVI
    Формат/Информация : Audio Video Interleave
    Размер файла : 1,37 Гбайт
    Продолжительность : 1 ч. 26 м.
    Общий поток : 2264 Кбит/сек
    Программа кодирования : VirtualDubMod 1.5.10.2 (build 2540/release)
    Библиотека кодирования : VirtualDubMod build 2540/release
    Видео
    Идентификатор : 0
    Формат : MPEG-4 Visual
    Профиль формата : Advanced Simple@L5
    Параметр BVOP формата : 2
    Параметр QPel формата : Нет
    Параметр GMC формата : Без точки перехода
    Параметр матрицы формата : Выборочная
    Идентификатор кодека : XVID
    Идентификатор кодека/Подсказка : XviD
    Продолжительность : 1 ч. 26 м.
    Битрейт : 1870 Кбит/сек
    Ширина : 720 пикселей
    Высота : 304 пикселя
    Соотношение сторон : 2,35:1
    Частота кадров : 25,000 кадров/сек
    Цветовое пространство : YUV
    Субдискретизация насыщенности : 4:2:0
    Битовая глубина : 8 бит
    Тип развёртки : Прогрессивная
    Метод сжатия : С потерями
    Бит/(Пиксели*Кадры) : 0.342
    Размер потока : 1,13 Гбайт (83%)
    Библиотека кодирования : XviD 1.2.1 (UTC 2008-12-04)
    Аудио
    Идентификатор : 1
    Формат : AC-3
    Формат/Информация : Audio Coding 3
    Расширение режима : CM (complete main)
    Параметр Endianness формата : Big
    Идентификатор кодека : 2000
    Продолжительность : 1 ч. 26 м.
    Вид битрейта : Постоянный
    Битрейт : 384 Кбит/сек
    Каналы : 2 канала
    Расположение каналов : Front: L R
    Частота : 48,0 КГц
    Частота кадров : 31,250 кадров/сек (1536 spf)
    Метод сжатия : С потерями
    Размер потока : 237 Мбайт (17%)
    Выравнивание : Разделение по промежуткам
    Продолжительность промежутка : 40 мс. (1,00 видеокадр)
    Время предзагрузки промежутка : 500 мс.

    Скриншоты:
    Скачать .torrent

    Скачать торрент-файл бесплатно и на максимальной скорости!

    Как скачивать? · Что такое торрент? · Рейтинг и ограничения

    !ВНИМАНИЕ!
    Сайт не распространяет и не хранит электронные версии произведений, а занимается лишь лишь предоставлением доступа к создаваемому пользователями каталогу ссылок на торрент-файлы, которые содержат только списки хеш-сумм, убедительная просьба с жалобами обращаться напрямую к пользователю. Файлы для обмена на трекере предоставлены пользователями сайта, и администрация не несёт ответственности за их содержание. Просьба не заливать файлы, защищенные авторскими правами, а также файлы нелегального содержания!


    _________________
    [Профиль] [ЛС]
    Показать сообщения:    
    Ответить на тему

    Текущее время: Сегодня, в 20:06

    Часовой пояс: GMT + 2



    Вы не можете начинать темы
    Вы не можете отвечать на сообщения
    Вы не можете редактировать свои сообщения
    Вы не можете удалять свои сообщения
    Вы не можете голосовать в опросах
    Вы не можете прикреплять файлы к сообщениям
    Вы не можете скачивать файлы