BitTorrentTracker PerecTracker.org
BitTorrentTracker PerecTracker.org
    
Регистрация  ·  Вход
 
 · 
Забыли пароль?

  • Фантастические твари и где они обитают / Fantastic Beasts and Where to Find Them (2016) HD-TS [Звук с CAMRip]

    Ответить на тему
     
    Автор Сообщение

    rechyn

    Создавать темы 26-Ноя-2016 16:59

           

    [Цитировать]

    Фантастические твари и где они обитают / Fantastic Beasts and Where to Find Them (2016) HD-TS [Звук с CAMRip] -Производство: Великобритания, США
    Жанр: Фэнтези, Приключения, Семейный
    Режиссер: Дэвид Йейтс
    Продюсер: Нил Блэр, Дэвид Хейман, Стивен Кловз
    Актеры: Эдди Редмэйн, Кэтрин Уотерстон, Дэн Фоглер, Элисон Судол, Колин Фаррелл, Кармен Эджого, Эзра Миллер, Саманта Мортон, Рон Перлман, Джон Войт
    Описание:
    Поиск и изучение необычайных волшебных существ приводят магозоолога Ньюта Саламандера в Нью-Йорк. Скорее всего, он отбыл бы на поезде дальше, если бы не не маг (так в Америке называют магглов) по имени Якоб, оставленный в неположенном месте магический чемодан и побег из него фантастических животных Ньюта.

    Возраст: 12+ (зрителям, достигшим 12 лет)
    Рейтинг MPAA: PG-13 (детям до 13 лет просмотр нежелателен)
    Дата мировой премьеры: 16 ноября 2016
    Дата российской премьеры: 17 ноября 2016
    Продолжительность: 02:04:00
    Качество видео: HD-TS
    Язык озвучки: Русский, Английский
    Перевод: Дублированный [Звук с CAMRip]
    Вид субтитров: Отсутствуют
    Реклама: Нет
    Видео: AVC/H.264, 720x320 (2.25:1), 30.000 fps, 1957 Kbps
    Аудио 1: AC3, 384 Kbps, 48.0 KHz, 2 ch [Rus]
    Аудио 2: MP3, 192 Kbps, 44.1 KHz, 2 ch [Eng]

    Mediainfo:

    eneral
    Unique ID : 177411135978665345461970854812395138334 (0x8578245530D0E32E8C0934179AFE6D1E)
    Complete name : Fantastic Beast and Where To Find Them 2016 HD-TS x264.mkv
    Format : Matroska
    Format version : Version 4 / Version 2
    File size : 2.24 GiB
    Duration : 2h 4mn
    Overall bit rate mode : Variable
    Overall bit rate : 2 585 Kbps
    Movie name : DENZEL519
    Encoded date : UTC 2016-11-20 20:48:55
    Writing application : mkvmerge v9.5.0 ('Quiet Fire') 64bit
    Writing library : libebml v1.3.4 + libmatroska v1.4.5
    DURATION : 02:03:59.830000000
    NUMBER_OF_FRAMES : 284806
    NUMBER_OF_BYTES : 178555925
    _STATISTICS_WRITING_APP : mkvmerge v9.5.0 ('Quiet Fire') 64bit
    _STATISTICS_WRITING_DATE_UTC : 2016-11-20 20:48:55
    _STATISTICS_TAGS : BPS DURATION NUMBER_OF_FRAMES NUMBER_OF_BYTES
    Video
    ID : 2
    Format : AVC
    Format/Info : Advanced Video Codec
    Format profile : High@L4.2
    Format settings, CABAC : Yes
    Format settings, ReFrames : 4 frames
    Codec ID : V_MPEG4/ISO/AVC
    Bit rate mode : Variable
    Bit rate : 1 957 Kbps
    Maximum bit rate : 62.5 Mbps
    Width : 720 pixels
    Height : 320 pixels
    Display aspect ratio : 2.25:1
    Frame rate mode : Variable
    Original frame rate : 30.000 fps
    Color space : YUV
    Chroma subsampling : 4:2:0
    Bit depth : 8 bits
    Scan type : Progressive
    Default : Yes
    Forced : No
    Color primaries : BT.709
    Transfer characteristics : BT.709
    Matrix coefficients : BT.709
    Audio #1
    ID : 1
    Format : AC-3
    Format/Info : Audio Coding 3
    Mode extension : CM (complete main)
    Format settings, Endianness : Big
    Codec ID : A_AC3
    Duration : 2h 4mn
    Bit rate mode : Constant
    Bit rate : 384 Kbps
    Channel(s) : 2 channels
    Channel positions : Front: L R
    Sampling rate : 48.0 KHz
    Bit depth : 16 bits
    Compression mode : Lossy
    Stream size : 341 MiB (15%)
    Title : CamRip
    Language : Russian
    Default : Yes
    Forced : No
    Audio #2
    ID : 3
    Format : MPEG Audio
    Format version : Version 1
    Format profile : Layer 3
    Codec ID : A_MPEG/L3
    Codec ID/Hint : MP3
    Duration : 2h 4mn
    Bit rate mode : Constant
    Bit rate : 192 Kbps
    Channel(s) : 2 channels
    Sampling rate : 44.1 KHz
    Compression mode : Lossy
    Delay relative to video : 101ms
    Stream size : 170 MiB (7%)
    Title : English
    Language : English
    Default : No
    Forced : No

    Скриншоты:
    Скачать .torrent

    Скачать торрент-файл бесплатно и на максимальной скорости!

    Как скачивать? · Что такое торрент? · Рейтинг и ограничения

    !ВНИМАНИЕ!
    Сайт не распространяет и не хранит электронные версии произведений, а занимается лишь лишь предоставлением доступа к создаваемому пользователями каталогу ссылок на торрент-файлы, которые содержат только списки хеш-сумм, убедительная просьба с жалобами обращаться напрямую к пользователю. Файлы для обмена на трекере предоставлены пользователями сайта, и администрация не несёт ответственности за их содержание. Просьба не заливать файлы, защищенные авторскими правами, а также файлы нелегального содержания!


    _________________
    [Профиль] [ЛС]
    Показать сообщения:    
    Ответить на тему

    Текущее время: Сегодня, в 18:40

    Часовой пояс: GMT + 2



    Вы не можете начинать темы
    Вы не можете отвечать на сообщения
    Вы не можете редактировать свои сообщения
    Вы не можете удалять свои сообщения
    Вы не можете голосовать в опросах
    Вы не можете прикреплять файлы к сообщениям
    Вы не можете скачивать файлы