BitTorrentTracker PerecTracker.org
BitTorrentTracker PerecTracker.org
    
Регистрация  ·  Вход
 
 · 
Забыли пароль?

  • Кристал Фэйри и волшебный кактус и 2012 / Crystal Fairy & the Magical Cactus and 2012 (Себастьян Сильва / Sebastián Silva) [2013, Чили, комедия, HDRip] DVO (НТВ+)

    Ответить на тему
     
    Автор Сообщение

    Light

    Создавать темы 26-Ноя-2016 13:55

           

    [Цитировать]

    Кристал Фэйри и волшебный кактус и 2012
    Crystal Fairy & the Magical Cactus and 2012

    Страна: Чили
    Жанр: комедия
    Год выпуска: 2013
    Продолжительность: 01:38:39-Перевод: Профессиональный (двухголосый закадровый) НТВ+
    Текст читали: Ольга Плетнёва и Олег Вирозуб
    Cубтитры: нет
    Оригинальная аудиодорожка: нет-Режиссер: Себастьян Сильва / Sebastián Silva
    В ролях: Майкл Сера, Габи Хоффманн, Себастьян Сильва, Хуан Андрес Сильва, Агустин Сильва, Хосе Мигель Сильва-Описание: История о том, как одержимый идеей фикс Джейми тащит за собой компанию друзей на дикий пляж где-то в Чили. Идея фикс — сварить мескалин из кактуса Сан Педро и выпить его на этом самом пляже. Случайно с ними увязывается странная девушка, которая называет себя Кристал Фэйри. Кактус они заполучают, мескалин варят, употребляют...-Доп. информация: Перевод на трекере появляется впервые-Сэмпл: минута46сек-Качество видео: HDRip (BDRip 720p спасибо andresweet с рутора)
    Формат видео: MKV
    Видео: AVC, 1024х428, 2.40:1, 23,976 кадра/сек, 1940 Кбит/сек
    Аудио: AC-3, 48,0 КГц, 192 Кбит/сек, 2 канала (двухголосый НТВ+)

    MediaInfo

    x264.log

    avs4x26x.exe: -L x264_64.exe --pass 2 --bitrate 1940 --preset veryslow --level 4.1 --aq-mode 3 --aq-strength 0.7 --deblock -3:-3 --merange 48 --bframes 16 --no-fast-pskip --no-dct-decimate --qpmax 49 --qpstep 8 --psy-rd 3.00:0.20 --qcomp 0.90 --vbv-maxrate 50000 --vbv-bufsize 62500 --subme 11 --no-mbtree --min-keyint 24 --keyint 240 --ipratio 2.40 --pbratio 1.00 --sar 1:1 --stats
    raw [info]: 1024x428p 1:1 @ 24000/1001 fps (cfr)
    x264 [info]: using SAR=1/1
    x264 [info]: using cpu capabilities: MMX2 SSE2Fast SSSE3 SSE4.1 Cache64
    x264 [info]: profile High, level 4.1
    x264 [info]: frame I:771 Avg QP:15.90 size: 72429
    x264 [info]: frame P:40260 Avg QP:24.85 size: 14571
    x264 [info]: frame B:100891 Avg QP:23.63 size: 7858
    x264 [info]: consecutive B-frames: 6.6% 6.5% 12.7% 30.0% 16.4% 18.6% 3.3% 1.3% 0.6% 0.4% 0.2% 0.2% 0.1% 0.2% 0.5% 0.7% 1.8%
    x264 [info]: mb I I16..4: 18.4% 59.1% 22.4%
    x264 [info]: mb P I16..4: 0.5% 4.8% 1.1% P16..4: 31.4% 39.4% 13.2% 3.1% 0.4% skip: 6.2%
    x264 [info]: mb B I16..4: 0.1% 0.8% 0.1% B16..8: 42.4% 20.0% 3.0% direct: 8.3% skip:25.4% L0:40.7% L1:49.8% BI: 9.5%
    x264 [info]: 8x8 transform intra:73.8% inter:56.5%
    x264 [info]: direct mvs spatial:99.2% temporal:0.8%
    x264 [info]: coded y,uvDC,uvAC intra: 86.3% 65.7% 27.8% inter: 31.9% 20.9% 1.7%
    x264 [info]: i16 v,h,dc,p: 29% 21% 15% 35%
    x264 [info]: i8 v,h,dc,ddl,ddr,vr,hd,vl,hu: 6% 6% 8% 11% 15% 15% 15% 12% 13%
    x264 [info]: i4 v,h,dc,ddl,ddr,vr,hd,vl,hu: 10% 7% 6% 9% 14% 14% 14% 12% 13%
    x264 [info]: i8c dc,h,v,p: 33% 30% 17% 20%
    x264 [info]: Weighted P-Frames: Y:5.2% UV:3.3%
    x264 [info]: ref P L0: 54.7% 13.0% 13.0% 4.1% 3.3% 2.4% 2.2% 1.1% 1.0% 0.9% 0.9% 0.8% 0.7% 0.7% 0.7% 0.5%
    x264 [info]: ref B L0: 78.3% 10.1% 3.9% 1.9% 1.3% 1.1% 0.8% 0.5% 0.4% 0.4% 0.3% 0.3% 0.3% 0.2% 0.1%
    x264 [info]: ref B L1: 94.2% 5.8%
    x264 [info]: kb/s:1939.83
    x264 [total]: encoded 141922 frames, 5.78 fps, 1939.83 kb/s
    General
    Уникальный идентификатор : 217296138926016490943966817474117794038 (0xA379B6CDAAD61F4687027370430A78F6)
    Полное имя : Кристал Фэйри и волшебный кактус и 2012.2013.HDRip.mkv
    Формат : Matroska
    Версия формата : Version 2
    Размер файла : 1.47 GiB
    Продолжительность : 1 h 38 min
    Общий поток : 2 133 kb/s
    Название фильма : Кристал Фэйри и волшебный кактус и 2012 / Crystal Fairy & the Magical Cactus and 2012 / 2013
    Дата кодирования : UTC 2016-11-24 15:10:59
    Программа кодирования : mkvmerge v8.3.0 ('Over the Horizon') 32bit
    Библиотека кодирования : libebml v1.3.1 + libmatroska v1.4.2
    Video
    Идентификатор : 1
    Формат : AVC
    Формат/Информация : Advanced Video Codec
    Профиль формата : High@L4.1
    Параметр CABAC формата : Yes
    Параметр ReFrames формата : 16 frames
    Идентификатор кодека : V_MPEG4/ISO/AVC
    Продолжительность : 1 h 38 min
    Битрейт : 1 940 kb/s
    Ширина : 1 024 pixels
    Высота : 428 pixels
    Соотношение сторон : 2.40:1
    Режим частоты кадров : Constant
    Частота кадров : 23.976 (24000/1001) FPS
    Цветовое пространство : YUV
    Субдискретизация насыщенности : 4:2:0
    Битовая глубина : 8 bits
    Тип развёртки : Progressive
    Бит/(Пиксели*Кадры) : 0.185
    Размер потока : 1.31 GiB (89%)
    Заголовок : Кристал Фэйри и волшебный кактус и 2012 / Crystal Fairy & the Magical Cactus and 2012 / 2013
    Библиотека кодирования : x264 core 146 r2538 121396c
    Настройки программы : cabac=1 / ref=16 / deblock=1:-3:-3 / analyse=0x3:0x133 / me=umh / subme=11 / psy=1 / psy_rd=3.00:0.20 / mixed_ref=1 / me_range=48 / chroma_me=1 / trellis=2 / 8x8dct=1 / cqm=0 / deadzone=21,11 / fast_pskip=0 / chroma_qp_offset=-3 / threads=6 / lookahead_threads=1 / sliced_threads=0 / nr=0 / decimate=0 / interlaced=0 / bluray_compat=0 / constrained_intra=0 / bframes=16 / b_pyramid=2 / b_adapt=2 / b_bias=0 / direct=3 / weightb=1 / open_gop=0 / weightp=2 / keyint=240 / keyint_min=24 / scenecut=40 / intra_refresh=0 / rc_lookahead=60 / rc=2pass / mbtree=0 / bitrate=1940 / ratetol=1.0 / qcomp=0.90 / qpmin=0 / qpmax=49 / qpstep=8 / cplxblur=20.0 / qblur=0.5 / vbv_maxrate=50000 / vbv_bufsize=62500 / nal_hrd=none / filler=0 / ip_ratio=2.40 / pb_ratio=1.00 / aq=3:0.70
    Язык : English
    Default : Yes
    Forced : No
    Audio
    Идентификатор : 2
    Формат : AC-3
    Формат/Информация : Audio Coding 3
    Расширение режима : CM (complete main)
    Параметр Endianness формата : Big
    Идентификатор кодека : A_AC3
    Продолжительность : 1 h 38 min
    Вид битрейта : Constant
    Битрейт : 192 kb/s
    Каналы : 2 channels
    Расположение каналов : Front: L R
    Частота : 48.0 kHz
    Частота кадров : 31.250 FPS (1536 spf)
    Битовая глубина : 16 bits
    Метод сжатия : Lossy
    Размер потока : 135 MiB (9%)
    Заголовок : двухголосый НТВ+
    Язык : Russian
    Default : Yes
    Forced : No

    Скриншот c названием фильма

    Скриншоты

    Скачать .torrent

    Скачать торрент-файл бесплатно и на максимальной скорости!

    Как скачивать? · Что такое торрент? · Рейтинг и ограничения

    !ВНИМАНИЕ!
    Сайт не распространяет и не хранит электронные версии произведений, а занимается лишь лишь предоставлением доступа к создаваемому пользователями каталогу ссылок на торрент-файлы, которые содержат только списки хеш-сумм, убедительная просьба с жалобами обращаться напрямую к пользователю. Файлы для обмена на трекере предоставлены пользователями сайта, и администрация не несёт ответственности за их содержание. Просьба не заливать файлы, защищенные авторскими правами, а также файлы нелегального содержания!


    _________________
    [Профиль] [ЛС]
    Показать сообщения:    
    Ответить на тему

    Текущее время: Сегодня, в 00:24

    Часовой пояс: GMT + 2



    Вы не можете начинать темы
    Вы не можете отвечать на сообщения
    Вы не можете редактировать свои сообщения
    Вы не можете удалять свои сообщения
    Вы не можете голосовать в опросах
    Вы не можете прикреплять файлы к сообщениям
    Вы не можете скачивать файлы