BitTorrentTracker PerecTracker.org
BitTorrentTracker PerecTracker.org
    
Регистрация  ·  Вход
 
 · 
Забыли пароль?

  • Тайная операция / Covert operation / Borderland (Матье Вешлер / Mathieu Weschler) [2014, Франция, боевик, DVDRip] VO

    Ответить на тему
     
    Автор Сообщение

    Light

    Создавать темы 06-Июл-2015 10:29

           

    [Цитировать]

    Тайная операция / Covert operation / Borderland--Страна: Франция
    Жанр: боевик
    Год выпуска: 2014
    Продолжительность: 01:28:33
    Перевод: Одноголосый закадровый
    Cубтитры: нет
    Режиссер: Матье Вешлер / Mathieu Weschler
    В ролях: Сейдина Бальде, Майкл Чан, Сабина Кроссен, Джеймс Жерар, Кирт Кишита.
    Описание: Охотника за головами Габриэля (Сейдина Бальде), разыскивающего преступников на территории Азии, посылают с новым заданием в район, расположенный недалеко от границы между Китаем и Северной Кореей. Он должен отыскать пропавшего агента британской спецслужбы.
    В итоге пойманный Габриэль приходит в себя на секретной базе, полной северокорейских солдат, которые твёрдо настроены выяснить причину его пребывания в стране.

    Сэмпл
    Качество видео: DVDRip
    Формат видео: AVI
    Видео: MPEG-4, 964 Кбит/сек 640 x 272 (2.353) 23.976 fps
    Аудио: MP3, 256 Кбит/сек 2 канала, 44,1 КГц

    MediaInfo

    Формат : AVI
    Формат/Информация : Audio Video Interleave
    Размер файла : 779 Мбайт
    Продолжительность : 1 ч. 28 м.
    Общий поток : 1230 Кбит/сек
    Библиотека кодирования : VirtualDub build 34703/release
    Видео
    Идентификатор : 0
    Формат : MPEG-4 Visual
    Профиль формата : Advanced Simple@L5
    Параметр BVOP формата : 2
    Параметр QPel формата : Нет
    Параметр GMC формата : Без точки перехода
    Параметр матрицы формата : Default (H.263)
    Режим смешивания : Сжатый битовый поток
    Идентификатор кодека : XVID
    Идентификатор кодека/Подсказка : XviD
    Продолжительность : 1 ч. 28 м.
    Битрейт : 964 Кбит/сек
    Ширина : 640 пикселей
    Высота : 272 пикселя
    Соотношение сторон : 2,35:1
    Частота кадров : 23,976 кадра/сек
    Цветовое пространство : YUV
    Субдискретизация насыщенности : 4:2:0
    Битовая глубина : 8 бит
    Тип развёртки : Прогрессивная
    Метод сжатия : С потерями
    Бит/(Пиксели*Кадры) : 0.231
    Размер потока : 611 Мбайт (78%)
    Библиотека кодирования : XviD 66
    Аудио
    Идентификатор : 1
    Формат : MPEG Audio
    Версия формата : Version 1
    Профиль формата : Layer 3
    Режим : Joint stereo
    Расширение режима : MS Stereo
    Идентификатор кодека : 55
    Идентификатор кодека/Подсказка : MP3
    Продолжительность : 1 ч. 28 м.
    Вид битрейта : Постоянный
    Битрейт : 256 Кбит/сек
    Каналы : 2 канала
    Частота : 44,1 КГц
    Метод сжатия : С потерями
    Размер потока : 162 Мбайт (21%)
    Выравнивание : Разделение по промежуткам
    Продолжительность промежутка : 42 мс. (1,00 видеокадр)
    Время предзагрузки промежутка : 500 мс.
    Библиотека кодирования : LAME3.99.5

    Скриншот c названием фильма

    Скриншоты

    Скачать .torrent

    Скачать торрент-файл бесплатно и на максимальной скорости!

    Как скачивать? · Что такое торрент? · Рейтинг и ограничения

    !ВНИМАНИЕ!
    Сайт не распространяет и не хранит электронные версии произведений, а занимается лишь лишь предоставлением доступа к создаваемому пользователями каталогу ссылок на торрент-файлы, которые содержат только списки хеш-сумм, убедительная просьба с жалобами обращаться напрямую к пользователю. Файлы для обмена на трекере предоставлены пользователями сайта, и администрация не несёт ответственности за их содержание. Просьба не заливать файлы, защищенные авторскими правами, а также файлы нелегального содержания!


    _________________
    [Профиль] [ЛС]
    Показать сообщения:    
    Ответить на тему

    Текущее время: Сегодня, в 20:44

    Часовой пояс: GMT + 2



    Вы не можете начинать темы
    Вы не можете отвечать на сообщения
    Вы не можете редактировать свои сообщения
    Вы не можете удалять свои сообщения
    Вы не можете голосовать в опросах
    Вы не можете прикреплять файлы к сообщениям
    Вы не можете скачивать файлы