BitTorrentTracker PerecTracker.org
BitTorrentTracker PerecTracker.org
    
Регистрация  ·  Вход
 
 · 
Забыли пароль?

  • [ATV3] Опасные каникулы (Ольга Беляева) [2016, Россия, Приключения, семейный, комедия, WEB-DL, HD (1080p)] Original

    Ответить на тему
     
    Автор Сообщение

    rechyn

    Создавать темы 25-Ноя-2016 17:00

           

    [Цитировать]

    Опасные каникулы
    -
    -Год выпуска: 2016
    Страна: Россия
    Жанр: Приключения, семейный, комедия
    Продолжительность: 01:16:40
    Перевод: Не требуется
    Оригинальная аудиодорожка: Есть
    Cубтитры: Нет
    Режиссёр: Ольга Беляева
    Сценарий: Ольга Беляева, Татьяна Устинова
    Продюсер: Станислав Говорухин, Екатерина Маскина
    Оператор: Антон Костромин
    Художник: Виктор Шмелев, Наталья Монева
    В ролях: Евдокия Колесникова, Эрих Чупин, Константин Крюков, Ирина Скобцева, Сергей Никоненко, Иван Колесников, Галина Польских, Нина Маслова
    Сборы в России: $30 132
    Премьера (РФ): 27 октября 2016, «Люксор»
    Описание: Сережа — типичный городской мальчишка. Так же, как и его сверстники, он проводит свои летние каникулы, играя в компьютерные игры. Однажды он вместе с родителями приезжает на все лето в Крым. Здесь его ждут завораживающая природа, новые друзья, головокружительные приключения с далеко не детскими испытаниями и опасностями!-Качество исходника: WEB-DL 1080p (HDClub)
    Качество: WEB-DL
    Тип: HD (1080p)
    Контейнер: M4V
    Видео: H.264, 1920x804, 2.40:1, 4 595 Kbps, 25.000 fps
    Аудио 1: Русский/Оригинальная дорожка , AAC / 2.0 / 160 Kbps / 48.0 KHz
    Аудио 2: Русский/Оригинальная дорожка , AC-3 / 5.1 / 384 Kbps / 48.0 KHz
    -

    iTunes Meta Tags

    Sort Name: Опасные каникулы
    XID: Apple:vendor_id:2016-908602
    contentID: 1175925071
    Copyright: © 2016 Luxor
    Screenwriters: Ольга Беляева, Татьяна Устинова
    Producers: Станислав Говорухин, Екатерина Маскина
    Director: Ольга Беляева
    Cast: Евдокия Колесникова, Эрих Чупин, Константин Крюков, Ирина Скобцева, Сергей Никоненко, Иван Колесников
    Studio: Вертикаль
    Rating: 133
    Long Description: Сережа - типичный городской мальчишка. Так же, как и его сверстники, он проводит свои летние каникулы, играя в компьютерные игры. Однажды он вместе с родителями приезжает на все лето в Крым. Здесь его ждут завораживающая природа, новые друзья, головокружительные приключения с далеко не детскими испытаниями и опасностями!
    Description: Сережа - типичный городской мальчишка. Так же, как и его сверстники, он проводит свои летние каникулы, играя в компьютерные игры. Однажды он вместе с родителями приезжает на все лето в Крым. Здесь его ждут завораживающая природа, новые друзья, головокружительные приключения с далеко не детскими испытаниями и опасностями!
    Release Date: 2016-01-01T08:00:00Z
    Genre: Русское кино
    Artist: Ольга Беляева
    Name: Опасные каникулы

    MediaInfo

    Код:General
    Complete name : /Users/imac/HandBrake/Opasnye.kanikuly.WEB-DL.1080p.m4v
    Format : MPEG-4
    Codec ID : M4V
    File size : 2.76 GiB
    Duration : 1h 16mn
    Overall bit rate mode : Variable
    Overall bit rate : 5 148 Kbps
    Movie name : Опасные каникулы
    Performer : Ольга Беляева
    Director : Ольга Беляева
    Actor : Евдокия Колесникова / Эрих Чупин / Константин Крюков / Ирина Скобцева / Сергей Никоненко / Иван Колесников
    Screenplay by : Ольга Беляева / Татьяна Устинова
    Producer : Станислав Говорухин / Екатерина Маскина
    Production studio : Вертикаль
    Genre : Русское кино
    ContentType : Short Film
    Description : Сережа - типичный городской мальчишка. Так же, как и его сверстники, он проводит свои летние каникулы, играя в компьютерные игры. Однажды он вместе с родителями приезжает на все лето в Крым. Здесь его ждут завораживающая природа, новые друзья, головокружительные приключения с далеко не детскими испытаниями и опасностями!
    Recorded date : UTC 2016-01-01 08:00:00
    Encoded date : UTC 2016-11-25 08:51:59
    Tagged date : UTC 2016-11-25 09:31:51
    Copyright : © 2016 Luxor
    Cover : Yes
    Rating : None
    Title/Sort : Опасные каникулы
    LongDescription : Сережа - типичный городской мальчишка. Так же, как и его сверстники, он проводит свои летние каникулы, играя в компьютерные игры. Однажды он вместе с родителями приезжает на все лето в Крым. Здесь его ждут завораживающая природа, новые друзья, головокружительные приключения с далеко не детскими испытаниями и опасностями!
    AppleStoreCatalogID : 1175925071
    Vendor : Apple:vendor_id:2016-908602
    ContentRating : ru-movie|6+|150|
    Video #1
    ID : 1
    Format : AVC
    Format/Info : Advanced Video Codec
    Format profile : High@L4
    Format settings, CABAC : Yes
    Format settings, ReFrames : 5 frames
    Codec ID : avc1
    Codec ID/Info : Advanced Video Coding
    Duration : 1h 16mn
    Bit rate : 4 595 Kbps
    Width : 1 920 pixels
    Height : 804 pixels
    Display aspect ratio : 2.40:1
    Frame rate mode : Constant
    Frame rate : 25.000 fps
    Color space : YUV
    Chroma subsampling : 4:2:0
    Bit depth : 8 bits
    Scan type : Progressive
    Bits/(Pixel*Frame) : 0.119
    Stream size : 2.46 GiB (89%)
    Title : Main Program
    Language : Russian
    Encoded date : UTC 2016-11-25 08:51:59
    Tagged date : UTC 2016-11-25 08:52:04
    Color range : Limited
    Color primaries : BT.709
    Transfer characteristics : BT.709
    Matrix coefficients : BT.709
    Video #2
    ID : 5
    Format : JPEG
    Codec ID : jpeg
    Duration : 1h 16mn
    Bit rate mode : Variable
    Bit rate : 1 276 bps
    Width : 640 pixels
    Height : 268 pixels
    Display aspect ratio : 2.40:1
    Frame rate mode : Variable
    Frame rate : 0.003 fps
    Minimum frame rate : 0.003 fps
    Maximum frame rate : 0.004 fps
    Color space : YUV
    Chroma subsampling : 4:2:0
    Bit depth : 8 bits
    Compression mode : Lossy
    Bits/(Pixel*Frame) : 2.480
    Stream size : 779 KiB (0%)
    Title : Chapter Images
    Language : Russian
    Encoded date : UTC 2016-11-25 08:52:10
    Tagged date : UTC 2016-11-25 08:52:10
    Audio #1
    ID : 2
    Format : AAC
    Format/Info : Advanced Audio Codec
    Format profile : LC
    Codec ID : 40
    Duration : 1h 16mn
    Bit rate mode : Variable
    Bit rate : 159 Kbps
    Maximum bit rate : 256 Kbps
    Channel(s) : 2 channels
    Channel positions : Front: L R
    Sampling rate : 48.0 KHz
    Compression mode : Lossy
    Stream size : 87.0 MiB (3%)
    Title : Russian Stereo
    Language : Russian
    Encoded date : UTC 2016-11-25 08:51:59
    Tagged date : UTC 2016-11-25 08:52:05
    Audio #2
    ID : 3
    Format : AC-3
    Format/Info : Audio Coding 3
    Mode extension : CM (complete main)
    Format settings, Endianness : Big
    Codec ID : ac-3
    Duration : 1h 16mn
    Bit rate mode : Constant
    Bit rate : 384 Kbps
    Channel(s) : 6 channels
    Channel positions : Front: L C R, Side: L R, LFE
    Sampling rate : 48.0 KHz
    Bit depth : 16 bits
    Compression mode : Lossy
    Stream size : 211 MiB (7%)
    Title : Russian DD 5.1
    Language : Russian
    Encoded date : UTC 2016-11-25 08:51:59
    Tagged date : UTC 2016-11-25 08:52:04
    Menu #1
    00:00:00.000 : Глава 1
    00:03:57.520 : Глава 2
    00:08:18.840 : Глава 3
    00:14:03.840 : Глава 4
    00:19:15.840 : Глава 5
    00:24:02.240 : Глава 6
    00:28:46.600 : Глава 7
    00:33:31.840 : Глава 8
    00:39:04.959 : Глава 9
    00:45:06.200 : Глава 10
    00:50:19.120 : Глава 11
    00:55:24.560 : Глава 12
    01:01:50.040 : Глава 13
    01:06:35.520 : Глава 14
    01:10:43.520 : Глава 15
    Menu #2
    ID : 4
    Codec ID : text
    Duration : 1h 16mn
    Language : Russian
    Encoded date : UTC 2016-11-25 08:52:05
    Tagged date : UTC 2016-11-25 08:52:05
    00:00:00.000 : Глава 1
    00:03:57.520 : Глава 2
    00:08:18.840 : Глава 3
    00:14:03.840 : Глава 4
    00:19:15.840 : Глава 5
    00:24:02.240 : Глава 6
    00:28:46.600 : Глава 7
    00:33:31.840 : Глава 8
    00:39:04.959 : Глава 9
    00:45:06.200 : Глава 10
    00:50:19.120 : Глава 11
    00:55:24.560 : Глава 12
    01:01:50.040 : Глава 13
    01:06:35.520 : Глава 14
    01:10:43.520 : Глава 15
    Bit rate mode : VBR

    Скриншоты

    -

    Релиз подготовлен для просмотра на Apple TV, iPad, iPhone, iPod Touch.
    Для просмотра данного релиза на компьютере с ОС Windows рекомендуется использовать VLC media player
    Скачать .torrent

    Скачать торрент-файл бесплатно и на максимальной скорости!

    Как скачивать? · Что такое торрент? · Рейтинг и ограничения

    !ВНИМАНИЕ!
    Сайт не распространяет и не хранит электронные версии произведений, а занимается лишь лишь предоставлением доступа к создаваемому пользователями каталогу ссылок на торрент-файлы, которые содержат только списки хеш-сумм, убедительная просьба с жалобами обращаться напрямую к пользователю. Файлы для обмена на трекере предоставлены пользователями сайта, и администрация не несёт ответственности за их содержание. Просьба не заливать файлы, защищенные авторскими правами, а также файлы нелегального содержания!


    _________________
    [Профиль] [ЛС]
    Показать сообщения:    
    Ответить на тему

    Текущее время: Сегодня, в 18:28

    Часовой пояс: GMT + 2



    Вы не можете начинать темы
    Вы не можете отвечать на сообщения
    Вы не можете редактировать свои сообщения
    Вы не можете удалять свои сообщения
    Вы не можете голосовать в опросах
    Вы не можете прикреплять файлы к сообщениям
    Вы не можете скачивать файлы