BitTorrentTracker PerecTracker.org
BitTorrentTracker PerecTracker.org
    
Регистрация  ·  Вход
 
 · 
Забыли пароль?

  • Антарктическая повесть (Сергей Тарасов) [1979 г., драма, боевик, приключения, SATRip]

    Ответить на тему
     
    Автор Сообщение

    Light

    Создавать темы 06-Июл-2015 06:17

           

    [Цитировать]

    Антарктическая повесть (3 серии)Год выпуска: 1979.
    Жанр: драма, боевик, приключения.
    Продолжительность: 01:06:32 + 01:04:04 + 01:07:36 (03:18:12).
    (3 серии)
    Режиссер: Сергей Тарасов.
    В ролях:
    Константин Григорьев, Анатолий Ромашин, Александр Вдовин, Александр Белявский, Борис Хмельницкий, Альгимантас Масюлис, Борис Химичев, Валерий Малышев, Харий Швейц, Юрий Назаров, Иван Тельнов, Виктор Шульгин, Наталья Фатеева.
    Описание:
    #1. Телесериал посвящен покорителям южных широт. Семенов, Гаранин, Филатов, Бармин — отважные полярники, начавшие осваивать Антарктиду. Чувство ответственности, нравственная сила помогают им в борьбе с суровыми условиями...
    #2. События фильма происходят в начале шестидесятых годов XX века, когда только начиналось освоение Антарктиды и ледовый континент был полон тайн и загадок. Группа полярников перед отправкой на родину получает задание: расконсервировать внутриконтинентальную станцию «Восток».

    Доп. информация:
    Страна: СССР .
    Киностудия: Мосфильм.
    Авторы сценария: Иван Менджерицкий, Владимир Санин.
    Оператор: Михаил Коропцов.
    Композитор: Тихон Хренников.
    Tекст песен Михаила Матусовского.
    Художник-постановщик: Юрий Кладиенко.
    Премьера: 19 марта 1980 года (ТВ).

    Еще постеры

    Релиз
    Рип с этой раздачи.
    Большое спасибо Cheef mate за предоставленый материал для рипа!!!

    Качество: SATRip
    Формат: AVI

    Видео

    1-ая серия - 720x544 (1.32:1), 25 fps, XviD build 73 ~2115 kbps avg, 0.22 bit/pixel
    2-ая серия - 720x544 (1.32:1), 25 fps, XviD build 73 ~2204 kbps avg, 0.23 bit/pixel
    3-я серия - 720x544 (1.32:1), 25 fps, XviD build 73 ~2116 kbps avg, 0.22 bit/pixel
    Аудио: 48 kHz, AC3 Dolby Digital, 2/0 (L,R) ch, ~192 kbps

    Отчет MI

    1-я серия:
    General
    Complete name : Antarkticheskaya.povest'.(3.serii.iz.3).1979.XviD.SATRip.fenixclub_3.24\Antarkticheskaya.povest'.(1-ya.seriya.iz.3).1979.XviD.SATRip.fenixclub.avi
    Format : AVI
    Format/Info : Audio Video Interleave
    File size : 1.08 GiB
    Duration : 1h 6mn
    Overall bit rate : 2 317 Kbps
    Writing application : VirtualDubMod 1.5.10.3 | www.virtualdub-fr.org || (build 2550/release)
    Writing library : VirtualDubMod build 2550/release
    Video
    ID : 0
    Format : MPEG-4 Visual
    Format profile : Advanced Simple@L5
    Format settings, BVOP : 2
    Format settings, QPel : No
    Format settings, GMC : No warppoints
    Format settings, Matrix : Custom
    Codec ID : XVID
    Codec ID/Hint : XviD
    Duration : 1h 6mn
    Bit rate : 2 116 Kbps
    Width : 720 pixels
    Height : 544 pixels
    Display aspect ratio : 4:3
    Frame rate : 25.000 fps
    Color space : YUV
    Chroma subsampling : 4:2:0
    Bit depth : 8 bits
    Scan type : Progressive
    Compression mode : Lossy
    Bits/(Pixel*Frame) : 0.216
    Stream size : 1 007 MiB (91%)
    Writing library : XviD 73
    Audio
    ID : 1
    Format : AC-3
    Format/Info : Audio Coding 3
    Mode extension : CM (complete main)
    Format settings, Endianness : Big
    Codec ID : 2000
    Duration : 1h 6mn
    Bit rate mode : Constant
    Bit rate : 192 Kbps
    Channel(s) : 2 channels
    Channel positions : Front: L R
    Sampling rate : 48.0 KHz
    Compression mode : Lossy
    Stream size : 91.4 MiB (8%)
    Alignment : Split accross interleaves
    Interleave, duration : 40 ms (1.00 video frame)
    Interleave, preload duratio : 500 ms.
    2-я серия:
    General
    Complete name : Antarkticheskaya.povest'.(3.serii.iz.3).1979.XviD.SATRip.fenixclub_3.24\Antarkticheskaya.povest'.(2-ya.seriyz.iz.3).1979.XviD.SATRip.fenixclub.avi
    Format : AVI
    Format/Info : Audio Video Interleave
    File size : 1.08 GiB
    Duration : 1h 4mn
    Overall bit rate : 2 407 Kbps
    Writing application : VirtualDubMod 1.5.10.3 | www.virtualdub-fr.org || (build 2550/release)
    Writing library : VirtualDubMod build 2550/release
    Video
    ID : 0
    Format : MPEG-4 Visual
    Format profile : Advanced Simple@L5
    Format settings, BVOP : 2
    Format settings, QPel : No
    Format settings, GMC : No warppoints
    Format settings, Matrix : Custom
    Codec ID : XVID
    Codec ID/Hint : XviD
    Duration : 1h 4mn
    Bit rate : 2 205 Kbps
    Width : 720 pixels
    Height : 544 pixels
    Display aspect ratio : 4:3
    Frame rate : 25.000 fps
    Color space : YUV
    Chroma subsampling : 4:2:0
    Bit depth : 8 bits
    Scan type : Progressive
    Compression mode : Lossy
    Bits/(Pixel*Frame) : 0.225
    Stream size : 1 010 MiB (92%)
    Writing library : XviD 73
    Audio
    ID : 1
    Format : AC-3
    Format/Info : Audio Coding 3
    Mode extension : CM (complete main)
    Format settings, Endianness : Big
    Codec ID : 2000
    Duration : 1h 4mn
    Bit rate mode : Constant
    Bit rate : 192 Kbps
    Channel(s) : 2 channels
    Channel positions : Front: L R
    Sampling rate : 48.0 KHz
    Compression mode : Lossy
    Stream size : 88.0 MiB (8%)
    Alignment : Split accross interleaves
    Interleave, duration : 40 ms (1.00 video frame)
    Interleave, preload duratio : 500 ms.
    3-я серия:
    General
    Complete name : Antarkticheskaya.povest'.(3.serii.iz.3).1979.XviD.SATRip.fenixclub_3.24\Antarkticheskaya.povest'.(3-ya.seriya.iz.3).1979.XviD.SATRip.fenixclub.avi
    Format : AVI
    Format/Info : Audio Video Interleave
    File size : 1.09 GiB
    Duration : 1h 7mn
    Overall bit rate : 2 319 Kbps
    Writing application : VirtualDubMod 1.5.10.3 | www.virtualdub-fr.org || (build 2550/release)
    Writing library : VirtualDubMod build 2550/release
    Video
    ID : 0
    Format : MPEG-4 Visual
    Format profile : Advanced Simple@L5
    Format settings, BVOP : 2
    Format settings, QPel : No
    Format settings, GMC : No warppoints
    Format settings, Matrix : Custom
    Codec ID : XVID
    Codec ID/Hint : XviD
    Duration : 1h 7mn
    Bit rate : 2 117 Kbps
    Width : 720 pixels
    Height : 544 pixels
    Display aspect ratio : 4:3
    Frame rate : 25.000 fps
    Color space : YUV
    Chroma subsampling : 4:2:0
    Bit depth : 8 bits
    Scan type : Progressive
    Compression mode : Lossy
    Bits/(Pixel*Frame) : 0.216
    Stream size : 1 024 MiB (91%)
    Writing library : XviD 73
    Audio
    ID : 1
    Format : AC-3
    Format/Info : Audio Coding 3
    Mode extension : CM (complete main)
    Format settings, Endianness : Big
    Codec ID : 2000
    Duration : 1h 7mn
    Bit rate mode : Constant
    Bit rate : 192 Kbps
    Channel(s) : 2 channels
    Channel positions : Front: L R
    Sampling rate : 48.0 KHz
    Compression mode : Lossy
    Stream size : 92.8 MiB (8%)
    Alignment : Split accross interleaves
    Interleave, duration : 40 ms (1.00 video frame)
    Interleave, preload duratio : 500 ms.
    Скриншоты

    Альтернативный хост


    Скачать .torrent

    Скачать торрент-файл бесплатно и на максимальной скорости!

    Как скачивать? · Что такое торрент? · Рейтинг и ограничения

    !ВНИМАНИЕ!
    Сайт не распространяет и не хранит электронные версии произведений, а занимается лишь лишь предоставлением доступа к создаваемому пользователями каталогу ссылок на торрент-файлы, которые содержат только списки хеш-сумм, убедительная просьба с жалобами обращаться напрямую к пользователю. Файлы для обмена на трекере предоставлены пользователями сайта, и администрация не несёт ответственности за их содержание. Просьба не заливать файлы, защищенные авторскими правами, а также файлы нелегального содержания!


    _________________
    [Профиль] [ЛС]
    Показать сообщения:    
    Ответить на тему

    Текущее время: Сегодня, в 16:13

    Часовой пояс: GMT + 2



    Вы не можете начинать темы
    Вы не можете отвечать на сообщения
    Вы не можете редактировать свои сообщения
    Вы не можете удалять свои сообщения
    Вы не можете голосовать в опросах
    Вы не можете прикреплять файлы к сообщениям
    Вы не можете скачивать файлы