BitTorrentTracker PerecTracker.org
BitTorrentTracker PerecTracker.org
    
Регистрация  ·  Вход
 
 · 
Забыли пароль?

  • Коварство / Малиция / Malizia / Malicia (Сальваторе Сампери / Salvatore Samperi) [1973, Италия, комедия, BDRemux 1080p] VO + Sub Eng + Original Ita

    Ответить на тему
     
    Автор Сообщение

    Light

    Создавать темы 24-Ноя-2016 19:15

           

    [Цитировать]

    Коварство / Малиция / Malizia / Malicia
    Страна: Италия
    Студия: Clesi Cinematografica, Dino de Laurentiis Cinematografica
    Жанр: комедия
    Год выпуска: 1973
    Продолжительность: 01:37:43
    Перевод: Одноголосый закадровый
    Cубтитры: английские
    Оригинальная аудиодорожка: итальянский
    Режиссер: Сальваторе Сампери / Salvatore Samperi
    В ролях: Laura Antonelli , Turi Ferro, Alessandro Momo, Tina Aumont, Lilla Brignone, Pino Caruso, Angela Luce, Stefano Amato, Gianluigi Chirizzi, Grazia Di Marzà, Massimiliano Filoni и др.
    Описание: Солидный отец семейства лишается безвременно отошедшей в мир иной супруги. И вовсе бы была жизнь семейства тоскливой и скучной, когда бы не появившаяся в доме экономка в исполнении Лауры Антонелли, которая и обед скулинарить — завсегда, и занять место в сексуальных фантазиях юных отпрысков тоже за милую душу. Ну, а с учётом того, что у овдовевшего главы семейства седина в гипотетическую бороду, а бес в ребро…
    II Сэмпл II II
    Тип релиза: BDRemux 1080p (Malizia.1973.1080p.Blu-Ray.REMUX.AVC.DTS-HD.MA.5.1-HDArea)
    Контейнер: MKV
    Видео: AVC / 1920x1080 / 16:9 / 24.0fps / 24000Kbps / High@L4.1
    Аудио 1: AC3 / 48.0 KHz / 2ch. / 192kbps / Rus / VO
    Аудио 2: DTS-HD MA / 48.0 KHz / 6ch / 1920kbps / 16bit (DTS Core 48.0 KHz / 6ch / 1509kbps / 16bit) Ita
    Формат субтитров: softsub (SRT)

    MediaInfo

    Общее
    Уникальный идентификатор : 251318742214604439345830870484353103074 (0xBD123AA7B7FCF483B2AB625E505D34E2)
    Полное имя : G:\!!!_torrent\Malizia.1973.BDRemux.1080p_by_vedigo.mkv
    Формат : Matroska
    Версия формата : Version 4 / Version 2
    Размер файла : 17,8 Гбайт
    Продолжительность : 1 ч. 37 м.
    Режим общего битрейта : Переменный
    Общий поток : 26,1 Мбит/сек
    Название фильма : Malizia.1973.BDRemux.1080p_by_vedigo
    Дата кодирования : UTC 2016-11-18 02:49:22
    Программа кодирования : mkvmerge v9.5.0 ('Quiet Fire') 64bit
    Библиотека кодирования : libebml v1.3.4 + libmatroska v1.4.5
    Видео
    Идентификатор : 1
    Формат : AVC
    Формат/Информация : Advanced Video Codec
    Профиль формата : High@L4.1
    Параметр CABAC формата : Да
    Параметр ReFrames формата : 4 кадра
    Идентификатор кодека : V_MPEG4/ISO/AVC
    Продолжительность : 1 ч. 37 м.
    Вид битрейта : Переменный
    Битрейт : 24,0 Мбит/сек
    Максимальный битрейт : 30,0 Мбит/сек
    Ширина : 1920 пикселей
    Высота : 1080 пикселей
    Соотношение сторон : 16:9
    Режим частоты кадров : Постоянный
    Частота кадров : 24,000 кадра/сек
    Стандарт вещания : NTSC
    Цветовое пространство : YUV
    Субдискретизация насыщенности : 4:2:0
    Битовая глубина : 8 бит
    Тип развёртки : Прогрессивная
    Бит/(Пиксели*Кадры) : 0.481
    Размер потока : 16,3 Гбайт (92%)
    Заголовок : Malizia.1973.BDRemux.1080p_by_vedigo
    Default : Да
    Forced : Нет
    Цветовой диапазон : Limited
    Основные цвета : BT.709
    Характеристики трансфера : BT.709
    Коэффициенты матрицы : BT.709
    Аудио #1
    Идентификатор : 2
    Формат : AC-3
    Формат/Информация : Audio Coding 3
    Расширение режима : CM (complete main)
    Параметр Endianness формата : Big
    Идентификатор кодека : A_AC3
    Продолжительность : 1 ч. 37 м.
    Вид битрейта : Постоянный
    Битрейт : 192 Кбит/сек
    Каналы : 2 канала
    Расположение каналов : Front: L R
    Частота : 48,0 КГц
    Частота кадров : 31,250 кадров/сек (1536 spf)
    Метод сжатия : С потерями
    Размер потока : 134 Мбайт (1%)
    Заголовок : VO
    Язык : Russian
    Default : Да
    Forced : Нет
    Аудио #2
    Идентификатор : 3
    Формат : DTS
    Формат/Информация : Digital Theater Systems
    Профиль формата : MA / Core
    Режим : 16
    Параметр Endianness формата : Big
    Идентификатор кодека : A_DTS
    Продолжительность : 1 ч. 37 м.
    Вид битрейта : Переменный / Постоянный
    Битрейт : 1920 Кбит/сек / 1509 Кбит/сек
    Каналы : 6 каналов
    Расположение каналов : Front: L C R, Side: L R, LFE
    Частота : 48,0 КГц
    Частота кадров : 93,750 кадра/сек (512 spf)
    Битовая глубина : 16 бит
    Метод сжатия : Без потерь / Lossy
    Размер потока : 1,32 Гбайт (7%)
    Заголовок : Original
    Язык : Italian
    Default : Нет
    Forced : Нет
    Текст
    Идентификатор : 4
    Формат : UTF-8
    Идентификатор кодека : S_TEXT/UTF8
    Идентификатор кодека/Информация : UTF-8 Plain Text
    Продолжительность : 1 ч. 36 м.
    Битрейт : 59 бит/сек
    Count of elements : 1122
    Размер потока : 42,0 Кбайт (0%)
    Заголовок : Subtitle eng
    Язык : English
    Default : Нет
    Forced : Нет
    Меню
    00:00:00.000 : en:00:00:00.000
    00:09:00.416 : en:00:09:00.416
    00:19:40.250 : en:00:19:40.250
    00:26:45.625 : en:00:26:45.625
    00:35:02.208 : en:00:35:02.208
    00:40:27.666 : en:00:40:27.666
    00:51:01.541 : en:00:51:01.541
    00:57:24.833 : en:00:57:24.833
    01:04:47.125 : en:01:04:47.125
    01:14:17.832 : en:01:14:17.832
    01:24:01.707 : en:01:24:01.707
    01:35:19.375 : en:01:35:19.375

    Скриншоты


    Скачать .torrent

    Скачать торрент-файл бесплатно и на максимальной скорости!

    Как скачивать? · Что такое торрент? · Рейтинг и ограничения

    !ВНИМАНИЕ!
    Сайт не распространяет и не хранит электронные версии произведений, а занимается лишь лишь предоставлением доступа к создаваемому пользователями каталогу ссылок на торрент-файлы, которые содержат только списки хеш-сумм, убедительная просьба с жалобами обращаться напрямую к пользователю. Файлы для обмена на трекере предоставлены пользователями сайта, и администрация не несёт ответственности за их содержание. Просьба не заливать файлы, защищенные авторскими правами, а также файлы нелегального содержания!


    _________________
    [Профиль] [ЛС]
    Показать сообщения:    
    Ответить на тему

    Текущее время: Сегодня, в 14:32

    Часовой пояс: GMT + 2



    Вы не можете начинать темы
    Вы не можете отвечать на сообщения
    Вы не можете редактировать свои сообщения
    Вы не можете удалять свои сообщения
    Вы не можете голосовать в опросах
    Вы не можете прикреплять файлы к сообщениям
    Вы не можете скачивать файлы