BitTorrentTracker PerecTracker.org
BitTorrentTracker PerecTracker.org
    
Регистрация  ·  Вход
 
 · 
Забыли пароль?

  • Фаворит / Seabiscuit (Гэри Росс / Gary Ross) [2003, США, драма, история, спорт, BDRip 1080p] Dub (Мосфильм-Мастер) + AVO (Юрий Живов) + Sub (Rus, Eng) + Original Eng

    Ответить на тему
     
    Автор Сообщение

    Light

    Создавать темы 24-Ноя-2016 19:15

           

    [Цитировать]

    Фаворит / Seabiscuit
    Страна: США
    Студия: Universal Pictures, DreamWorks SKG
    Жанр: драма, история, спорт
    Год выпуска: 2003
    Продолжительность: 02:20:26
    Перевод 1: Профессиональный (дублированный) Мосфильм-Мастер
    Перевод 2: Авторский (одноголосый закадровый) Юрий Живов
    Cубтитры: русские, английские
    Оригинальная аудиодорожка: английский
    Режиссер: Гэри Росс / Gary Ross
    В ролях: Тоби Магуайр, Дэвид МакКалло, Джефф Бриджес, Пол Винсент О’Коннор, Крис Купер, Майкл Инсайн, Джеймс Кин, Валери Махаффей, Дэвид Доути, Карл М. Крэйг
    Описание: Америка 30-х, Великая депрессия в разгаре. Свободное время люди проводят в тщетных поисках работы или просто отправляются искать счастья на ипподроме. Ставки невысоки, но их много… На местном ипподроме появляется темная лошадка: маленькая, кряжистая и, кажется, не годная для гонок.
    Ее жокей Ред Поллард — слепнущий чемпион по боксу в супер-легком весе. Ее тренер — Том Смит, бывший цирковой силач по кличке «Разрушитель мустангов». А хозяин лошадки — Чарльз Ховард, человек, который позже наладил торговлю автомобилями по всей Западной Америке.
    Но пока вся страна с живым интересом следит за восхождением Фаворита. Ведь невзрачной лошадке с полуслепым наездником удастся обогнать непобедимого фаворита скачек Военного Адмирала, и добиться титула «Лучшая Лошадь» 1938 года.
    Автор рипа: Sem-te
    Релиз от:

    Качество: BDRip 1080p
    Формат: MKV
    Видео: MPEG-4 AVC, 13600 Кбит/с, 1920x816, 23.976 кадр/с
    Аудио 1: Russian: 48 kHz, AC3, 3/2 (L,C,R,l,r) + LFE ch, ~448 kbps avg |Мосфильм-Мастер|
    Аудио 2: Russian: 48 kHz, AC3, 2/0 (L,R) ch, ~192 kbps avg |Юрий Живов|
    Аудио 3: English: 48 kHz, DTS, 3/2 (L,C,R,l,r) + LFE ch, ~1509 kbps avg

    MediaInfo

    General
    Unique ID : 208668522059683917084772688966113997204 (0x9CFC187340084F85BA12C4033606B194)
    Format : Matroska
    Format version : Version 2
    File size : 15.4 GiB
    Duration : 2h 20mn
    Overall bit rate : 15.7 Mbps
    Movie name : Seabiscuit.2003.1080p.BluRay.x264.DTS-FGT
    Encoded date : UTC 2016-11-22 14:34:38
    Writing application : mkvmerge v7.8.0 ('River Man') 32bit built on Apr 3 2015 12:11:22
    Writing library : libebml v1.3.1 + libmatroska v1.4.2
    Attachements : small_cover.jpg / small_cover_land.jpg / cover.jpg / cover_land.jpg
    Video
    ID : 1
    Format : AVC
    Format/Info : Advanced Video Codec
    Format profile : High@L4.1
    Format settings, CABAC : Yes
    Format settings, ReFrames : 5 frames
    Codec ID : V_MPEG4/ISO/AVC
    Duration : 2h 20mn
    Bit rate : 13.6 Mbps
    Width : 1 920 pixels
    Height : 816 pixels
    Display aspect ratio : 2.35:1
    Frame rate mode : Constant
    Frame rate : 23.976 fps
    Color space : YUV
    Chroma subsampling : 4:2:0
    Bit depth : 8 bits
    Scan type : Progressive
    Bits/(Pixel*Frame) : 0.361
    Stream size : 13.0 GiB (84%)
    Writing library : x264 core 115 r2008 4c552d8
    Encoding settings : cabac=1 / ref=5 / deblock=1:-2:-2 / analyse=0x3:0x133 / me=umh / subme=10 / psy=1 / psy_rd=1.10:0.15 / mixed_ref=1 / me_range=48 / chroma_me=1 / trellis=2 / 8x8dct=1 / cqm=0 / deadzone=21,11 / fast_pskip=1 / chroma_qp_offset=-3 / threads=18 / sliced_threads=0 / nr=0 / decimate=0 / interlaced=0 / bluray_compat=0 / constrained_intra=0 / bframes=7 / b_pyramid=2 / b_adapt=2 / b_bias=0 / direct=3 / weightb=1 / open_gop=0 / weightp=2 / keyint=250 / keyint_min=23 / scenecut=40 / intra_refresh=0 / rc_lookahead=100 / rc=2pass / mbtree=1 / bitrate=13570 / ratetol=1.0 / qcomp=0.70 / qpmin=0 / qpmax=69 / qpstep=4 / cplxblur=20.0 / qblur=0.5 / ip_ratio=1.40 / aq=1:1.00
    Language : English
    Default : Yes
    Forced : No
    Audio #1
    ID : 2
    Format : AC-3
    Format/Info : Audio Coding 3
    Mode extension : CM (complete main)
    Format settings, Endianness : Big
    Codec ID : A_AC3
    Duration : 2h 20mn
    Bit rate mode : Constant
    Bit rate : 448 Kbps
    Channel(s) : 6 channels
    Channel positions : Front: L C R, Side: L R, LFE
    Sampling rate : 48.0 KHz
    Bit depth : 16 bits
    Compression mode : Lossy
    Stream size : 450 MiB (3%)
    Title : Dub (Мосфильм-Мастер)
    Language : Russian
    Default : Yes
    Forced : No
    Audio #2
    ID : 3
    Format : AC-3
    Format/Info : Audio Coding 3
    Mode extension : CM (complete main)
    Format settings, Endianness : Big
    Codec ID : A_AC3
    Duration : 2h 20mn
    Bit rate mode : Constant
    Bit rate : 192 Kbps
    Channel(s) : 2 channels
    Channel positions : Front: L R
    Sampling rate : 48.0 KHz
    Bit depth : 16 bits
    Compression mode : Lossy
    Stream size : 193 MiB (1%)
    Title : AVO (Юрий Живов)
    Language : Russian
    Default : No
    Forced : No
    Audio #3
    ID : 4
    Format : DTS
    Format/Info : Digital Theater Systems
    Mode : 16
    Format settings, Endianness : Big
    Codec ID : A_DTS
    Duration : 2h 20mn
    Bit rate mode : Constant
    Bit rate : 1 509 Kbps
    Channel(s) : 6 channels
    Channel positions : Front: L C R, Side: L R, LFE
    Sampling rate : 48.0 KHz
    Bit depth : 24 bits
    Compression mode : Lossy
    Stream size : 1.48 GiB (10%)
    Title : Original
    Language : English
    Default : No
    Forced : No
    Text #1
    ID : 5
    Format : UTF-8
    Codec ID : S_TEXT/UTF8
    Codec ID/Info : UTF-8 Plain Text
    Language : Russian
    Default : No
    Forced : No
    Text #2
    ID : 6
    Format : UTF-8
    Codec ID : S_TEXT/UTF8
    Codec ID/Info : UTF-8 Plain Text
    Language : English
    Default : No
    Forced : No
    Menu
    00:00:00.000 : en:00:00:00.000
    00:03:07.312 : en:00:03:07.312
    00:10:52.151 : en:00:10:52.151
    00:12:49.519 : en:00:12:49.519
    00:18:12.383 : en:00:18:12.383
    00:20:30.312 : en:00:20:30.312
    00:27:10.629 : en:00:27:10.629
    00:39:35.873 : en:00:39:35.873
    00:44:03.266 : en:00:44:03.266
    00:47:08.075 : en:00:47:08.075
    00:53:05.474 : en:00:53:05.474
    00:58:38.640 : en:00:58:38.640
    01:00:33.964 : en:01:00:33.964
    01:06:46.002 : en:01:06:46.002
    01:13:03.045 : en:01:13:03.045
    01:14:31.050 : en:01:14:31.050
    01:17:57.840 : en:01:17:57.840
    01:21:05.319 : en:01:21:05.319
    01:23:08.734 : en:01:23:08.734
    01:27:59.900 : en:01:27:59.900
    01:35:19.213 : en:01:35:19.213
    01:39:05.898 : en:01:39:05.898
    01:48:32.506 : en:01:48:32.506
    01:59:21.780 : en:01:59:21.780
    02:08:12.768 : en:02:08:12.768

    Скриншоты

    Скачать .torrent

    Скачать торрент-файл бесплатно и на максимальной скорости!

    Как скачивать? · Что такое торрент? · Рейтинг и ограничения

    !ВНИМАНИЕ!
    Сайт не распространяет и не хранит электронные версии произведений, а занимается лишь лишь предоставлением доступа к создаваемому пользователями каталогу ссылок на торрент-файлы, которые содержат только списки хеш-сумм, убедительная просьба с жалобами обращаться напрямую к пользователю. Файлы для обмена на трекере предоставлены пользователями сайта, и администрация не несёт ответственности за их содержание. Просьба не заливать файлы, защищенные авторскими правами, а также файлы нелегального содержания!


    _________________
    [Профиль] [ЛС]
    Показать сообщения:    
    Ответить на тему

    Текущее время: Сегодня, в 16:28

    Часовой пояс: GMT + 2



    Вы не можете начинать темы
    Вы не можете отвечать на сообщения
    Вы не можете редактировать свои сообщения
    Вы не можете удалять свои сообщения
    Вы не можете голосовать в опросах
    Вы не можете прикреплять файлы к сообщениям
    Вы не можете скачивать файлы