BitTorrentTracker PerecTracker.org
BitTorrentTracker PerecTracker.org
    
Регистрация  ·  Вход
 
 · 
Забыли пароль?

  • Быстрое реагирование / Первая помощь / First Response (Филипп Ганьон / Philippe Gagnon) [2015, Канада, боевик, триллер, драма, HDTV 1080i] DVO

    Ответить на тему
     
    Автор Сообщение

    Light

    Создавать темы 24-Ноя-2016 19:15

           

    [Цитировать]

    Быстрое реагирование / Первая помощьFirst Response
    Страна: Канада
    Жанр: боевик, триллер, драма
    Год выпуска: 2015
    Продолжительность: 01:28:17
    -
    Перевод: Профессиональный (двухголосый закадровый)
    Cубтитры: нет
    Оригинальная аудиодорожка: нет
    -
    Режиссер: Филипп Ганьон / Philippe Gagnon
    В ролях: Даня Рамирес, Кристофер Тернер, Джорис Джарски, Адам Батчер, Грэхэм Эбби, Джефферсон Браун, Марк Слэк, Эллен Дэвид, Хелена Мари Патт, Питер Майкл Диллон
    -
    Описание: После того, как ограбление пошло не по плану, ветерана-парамедика Камиллу и её коллегу Гэрри берут в заложники и заставляют помочь раненому брату грабителя. Пока Гэрри ездит по городу, избегая полиции, Камилле под дулом пистолета приходится проводить опасные операции, чтобы спасти жизнь молодого человека. Даже если всё пройдёт хорошо, может ли она доверять преступникам и верить в то, что они сдержат слово и отпустят их? Камилла понимает, что ей придётся пожертвовать жизнью молодого человека, чтобы спасти себя и своего коллегу.

    >>> Собственная запись со спутника Eutelsat 36A/36B (36°E) | TV1000 Megahit HD (эфир 22.11.2016г.)
    Тип релиза: HDTV 1080i
    Контейнер: MKV
    Видео: MPEG-4 AVC / PAL 16:9 / 1920x1080 (1,78:1) / 9289 kbps / 25,000 fps / 0.090 bit/pixel / High@L4
    Аудио: Russian / Dolby Digital Audio / 5.1 Ch / 48 kHz / 384 kbps / 16 bit | DVO
    Навигация по главам: есть

    MediaInfo

    Общее
    Уникальный идентификатор                 : 202646269442736431895530837518071301187 (0x98744078D60C9DABB5880979B8130443)
    Полное имя                               : F:\First Response 2015 1080i HDTV MPEG4 DD5.1.mkv
    Формат                                   : Matroska
    Версия формата                           : Version 4 / Version 2
    Размер файла                             : 5,97 Гбайт
    Продолжительность                        : 1 ч. 28 м.
    Общий поток                              : 9680 Кбит/сек
    Название фильма                          : Release for RuTracker © flaSI-I
    Дата кодирования                         : UTC 2016-11-22 23:02:07
    Программа кодирования                    : mkvmerge v9.5.0 ('Quiet Fire') 64bit
    Библиотека кодирования                   : libebml v1.3.4 + libmatroska v1.4.5
    Видео
    Идентификатор                            : 1
    Формат                                   : AVC
    Формат/Информация                        : Advanced Video Codec
    Профиль формата                          : High@L4
    Параметр CABAC формата                   : Да
    Параметр ReFrames формата                : 4 кадра
    Идентификатор кодека                     : V_MPEG4/ISO/AVC
    Продолжительность                        : 1 ч. 28 м.
    Битрейт                                  : 9289 Кбит/сек
    Ширина                                   : 1920 пикселей
    Высота                                   : 1080 пикселей
    Соотношение сторон                       : 16:9
    Режим частоты кадров                     : Переменный
    Частота кадров                           : 50,000 кадров/сек
    Частота кадров в оригинале               : 25,000 кадров/сек
    Стандарт вещания                         : Component
    Цветовое пространство                    : YUV
    Субдискретизация насыщенности            : 4:2:0
    Битовая глубина                          : 8 бит
    Тип развёртки                            : Чересстрочная
    Метод сохранения типа развёртки          : Раздельные поля
    Порядок развёртки                        : Верхнее поле первое
    Бит/(Пиксели*Кадры)                      : 0.090
    Размер потока                            : 5,73 Гбайт (96%)
    Язык                                     : English
    Default                                  : Да
    Forced                                   : Нет
    Цветовой диапазон                        : Limited
    Основные цвета                           : BT.709
    Характеристики трансфера                 : BT.709
    Коэффициенты матрицы                     : BT.709
    Аудио
    Идентификатор                            : 2
    Формат                                   : AC-3
    Формат/Информация                        : Audio Coding 3
    Расширение режима                        : CM (complete main)
    Параметр Endianness формата              : Big
    Идентификатор кодека                     : A_AC3
    Продолжительность                        : 1 ч. 28 м.
    Вид битрейта                             : Постоянный
    Битрейт                                  : 384 Кбит/сек
    Каналы                                   : 6 каналов
    Расположение каналов                     : Front: L C R, Side: L R, LFE
    Частота                                  : 48,0 КГц
    Частота кадров                           : 31,250 кадров/сек (1536 spf)
    Битовая глубина                          : 16 бит
    Метод сжатия                             : С потерями
    Размер потока                            : 242 Мбайт (4%)
    Заголовок                                : DVO
    Язык                                     : Russian
    Default                                  : Да
    Forced                                   : Нет
    Меню
    00:00:00.000                             : en:Chapter 1
    00:13:08.830                             : en:Chapter 2
    00:21:33.541                             : en:Chapter 3
    00:29:12.667                             : en:Chapter 4
    00:39:59.856                             : en:Chapter 5
    00:48:49.050                             : en:Chapter 6
    00:57:00.666                             : en:Chapter 7
    01:08:08.418                             : en:Chapter 8
    01:15:27.148                             : en:Chapter 9
    01:23:50.567                             : en:Chapter 10

    Скриншоты

    -

    Скачать .torrent

    Скачать торрент-файл бесплатно и на максимальной скорости!

    Как скачивать? · Что такое торрент? · Рейтинг и ограничения

    !ВНИМАНИЕ!
    Сайт не распространяет и не хранит электронные версии произведений, а занимается лишь лишь предоставлением доступа к создаваемому пользователями каталогу ссылок на торрент-файлы, которые содержат только списки хеш-сумм, убедительная просьба с жалобами обращаться напрямую к пользователю. Файлы для обмена на трекере предоставлены пользователями сайта, и администрация не несёт ответственности за их содержание. Просьба не заливать файлы, защищенные авторскими правами, а также файлы нелегального содержания!


    _________________
    [Профиль] [ЛС]
    Показать сообщения:    
    Ответить на тему

    Текущее время: Сегодня, в 18:25

    Часовой пояс: GMT + 2



    Вы не можете начинать темы
    Вы не можете отвечать на сообщения
    Вы не можете редактировать свои сообщения
    Вы не можете удалять свои сообщения
    Вы не можете голосовать в опросах
    Вы не можете прикреплять файлы к сообщениям
    Вы не можете скачивать файлы