BitTorrentTracker PerecTracker.org
BitTorrentTracker PerecTracker.org
    
Регистрация  ·  Вход
 
 · 
Забыли пароль?

  • Сумасброды 2: Не в своем уме / Screwballs II: Loose Screws (Рафал Зелински / Rafal Zielinski) [1985, Канада, комедия, BDRip 720p] AVO (Михаил Иванов) + Original Eng

    Ответить на тему
     
    Автор Сообщение

    Light

    Создавать темы 24-Ноя-2016 19:15

           

    [Цитировать]

    Сумасброды 2: Не в своем уме / Screwballs II: Loose Screws
    Страна: Канада
    Жанр: комедия
    Год выпуска: 1985
    Продолжительность: 01:16:42
    Перевод: Авторский (одноголосый закадровый) Михаил Иванов
    Cубтитры: нет
    Оригинальная аудиодорожка: английский
    Режиссер: Рафал Зелински / Rafal Zielinski
    В ролях: Брайан Джинесс,Лэнс Ван Дер Колк,Алан Девё,Джейсон Уоррен,Энни МакОли,Карен Вуд,Лиз Грин,Майк МакДональд,Синтия Болливо,Дебора Лоббан...
    Описание: Во второй серии «Сумасбродов» эротически озабоченные ребята, приезжают в другой колледж, где сначала выдают себя за врачей, перед которыми все школьницы должны раздеться, а потом вытворяют всевозможные шутки над соученицами и даже преподавательницами, подглядывая, и даже переодеваясь, чтобы проникнуть в спальню и в женский душ.
    Доп. информация: Перевод Иванова с раздачи nnlabetik, в переводе устранён рассинхрон.
    Сэмпл: http://sendfile.su/1284815
    Тип релиза: BDRip 720p
    Контейнер: MKV
    Видео: 1280x720 (16:9), 23.976 fps, AVC, ~8500 Kbps, 0.385 bits/pixel
    Аудио 1: Russian, 48.0 KHz, AC3, 2 ch, 192 Kbps - Михаил Иванов
    Аудио 2: English, 48.0 KHz, DTS, 2 ch, 1510 Kbps

    Log

    avs4x26x.exe: -L x264_64.exe --pass 2 --bitrate 8500 --preset medium --ref 9 --deblock -1:-1 --merange 32 --bframes 10 --direct auto --b-adapt 2 --trellis 2 --no-fast-pskip --subme 10 --me umh --rc-lookahead 50 --vbv-bufsize 14000 --vbv-maxrate 14000 --partitions p8x8,b8x8,i4x4,i8x8 --sar 1:1 --stats
    raw [info]: 1280x720p 1:1 @ 24000/1001 fps (cfr)
    x264 [info]: using SAR=1/1
    x264 [info]: using cpu capabilities: MMX2 SSE2Fast LZCNT
    x264 [info]: profile High, level 4.0
    x264 [info]: frame I:716 Avg QP:15.71 size:149336
    x264 [info]: frame P:23082 Avg QP:18.17 size: 65542
    x264 [info]: frame B:86536 Avg QP:20.19 size: 37610
    x264 [info]: consecutive B-frames: 1.1% 2.0% 7.8% 20.1% 16.0% 47.7% 2.9% 0.4% 1.4% 0.2% 0.2%
    x264 [info]: mb I I16..4: 2.4% 83.8% 13.8%
    x264 [info]: mb P I16..4: 1.5% 26.3% 2.6% P16..4: 32.3% 25.2% 10.1% 0.0% 0.0% skip: 1.9%
    x264 [info]: mb B I16..4: 0.2% 5.4% 0.4% B16..8: 41.3% 17.9% 4.7% direct:17.4% skip:12.8% L0:45.9% L1:40.2% BI:13.9%
    x264 [info]: 8x8 transform intra:88.0% inter:65.2%
    x264 [info]: direct mvs spatial:97.8% temporal:2.2%
    x264 [info]: coded y,uvDC,uvAC intra: 91.8% 81.6% 48.4% inter: 62.1% 54.2% 5.6%
    x264 [info]: i16 v,h,dc,p: 27% 11% 9% 53%
    x264 [info]: i8 v,h,dc,ddl,ddr,vr,hd,vl,hu: 9% 7% 8% 10% 14% 14% 13% 12% 13%
    x264 [info]: i4 v,h,dc,ddl,ddr,vr,hd,vl,hu: 9% 6% 4% 10% 16% 16% 14% 13% 14%
    x264 [info]: i8c dc,h,v,p: 42% 23% 21% 14%
    x264 [info]: Weighted P-Frames: Y:8.6% UV:3.6%
    x264 [info]: ref P L0: 37.7% 10.6% 17.2% 9.2% 7.3% 5.9% 5.0% 3.5% 3.3% 0.4% 0.0%
    x264 [info]: ref B L0: 71.1% 11.8% 6.5% 3.6% 2.8% 2.3% 1.4% 0.5%
    x264 [info]: ref B L1: 94.6% 5.4%
    x264 [info]: kb/s:8473.75
    x264 [total]: encoded 110334 frames, 3.45 fps, 8473.75 kb/s

    MediaInfo

    General
    Unique ID : 244545151502983852687067263839787272850 (0xB7F9AED9501723BEB2CEB75C259BCA92)
    Complete name : D:\Screwballs II - Loose Screws. BDRip 720p.mkv
    Format : Matroska
    Format version : Version 4 / Version 2
    File size : 5.45 GiB
    Duration : 1h 16mn
    Overall bit rate : 10.2 Mbps
    Encoded date : UTC 2016-11-23 16:25:20
    Writing application : mkvmerge v9.4.2 ('So High') 64bit
    Writing library : libebml v1.3.4 + libmatroska v1.4.5
    Video
    ID : 1
    Format : AVC
    Format/Info : Advanced Video Codec
    Format profile : High@L4
    Format settings, CABAC : Yes
    Format settings, ReFrames : 9 frames
    Codec ID : V_MPEG4/ISO/AVC
    Duration : 1h 16mn
    Bit rate : 8 500 Kbps
    Width : 1 280 pixels
    Height : 720 pixels
    Display aspect ratio : 16:9
    Frame rate mode : Constant
    Frame rate : 23.976 (24000/1001) fps
    Color space : YUV
    Chroma subsampling : 4:2:0
    Bit depth : 8 bits
    Scan type : Progressive
    Bits/(Pixel*Frame) : 0.385
    Stream size : 4.54 GiB (83%)
    Writing library : x264 core 148 r2705 3f5ed56
    Encoding settings : cabac=1 / ref=9 / deblock=1:-1:-1 / analyse=0x3:0x113 / me=umh / subme=10 / psy=1 / psy_rd=1.00:0.00 / mixed_ref=1 / me_range=32 / chroma_me=1 / trellis=2 / 8x8dct=1 / cqm=0 / deadzone=21,11 / fast_pskip=0 / chroma_qp_offset=-2 / threads=6 / lookahead_threads=1 / sliced_threads=0 / nr=0 / decimate=1 / interlaced=0 / bluray_compat=0 / constrained_intra=0 / bframes=10 / b_pyramid=2 / b_adapt=2 / b_bias=0 / direct=3 / weightb=1 / open_gop=0 / weightp=2 / keyint=250 / keyint_min=23 / scenecut=40 / intra_refresh=0 / rc_lookahead=50 / rc=2pass / mbtree=1 / bitrate=8500 / ratetol=1.0 / qcomp=0.60 / qpmin=0 / qpmax=69 / qpstep=4 / cplxblur=20.0 / qblur=0.5 / vbv_maxrate=14000 / vbv_bufsize=14000 / nal_hrd=none / filler=0 / ip_ratio=1.40 / aq=1:1.00
    Language : English
    Default : Yes
    Forced : No
    Audio #1
    ID : 2
    Format : AC-3
    Format/Info : Audio Coding 3
    Mode extension : CM (complete main)
    Format settings, Endianness : Big
    Codec ID : A_AC3
    Duration : 1h 16mn
    Bit rate mode : Constant
    Bit rate : 192 Kbps
    Channel(s) : 2 channels
    Channel positions : Front: L R
    Sampling rate : 48.0 KHz
    Frame rate : 31.250 fps (1536 spf)
    Compression mode : Lossy
    Stream size : 105 MiB (2%)
    Title : Михаил Иванов
    Language : Russian
    Default : Yes
    Forced : No
    Audio #2
    ID : 3
    Format : DTS
    Format/Info : Digital Theater Systems
    Mode : 16
    Format settings, Endianness : Big
    Codec ID : A_DTS
    Duration : 1h 16mn
    Bit rate mode : Constant
    Bit rate : 1 509 Kbps
    Channel(s) : 2 channels
    Channel positions : Front: L R
    Sampling rate : 48.0 KHz
    Frame rate : 93.750 fps (512 spf)
    Bit depth : 24 bits
    Compression mode : Lossy
    Stream size : 828 MiB (15%)
    Language : English
    Default : No
    Forced : No
    Menu
    00:00:00.000 : :Chapter 01
    00:05:19.110 : :Chapter 02
    00:09:45.584 : :Chapter 03
    00:16:09.969 : :Chapter 04
    00:22:59.878 : :Chapter 05
    00:28:31.960 : :Chapter 06
    00:34:17.889 : :Chapter 07
    00:40:31.137 : :Chapter 08
    00:46:52.893 : :Chapter 09
    00:53:15.150 : :Chapter 10
    00:58:23.958 : :Chapter 11
    01:05:52.740 : :Chapter 12
    01:07:11.861 : :Chapter 13
    01:11:53.058 : :Chapter 14
    01:14:05.732 : :Chapter 15

    Скриншоты

    Скачать .torrent

    Скачать торрент-файл бесплатно и на максимальной скорости!

    Как скачивать? · Что такое торрент? · Рейтинг и ограничения

    !ВНИМАНИЕ!
    Сайт не распространяет и не хранит электронные версии произведений, а занимается лишь лишь предоставлением доступа к создаваемому пользователями каталогу ссылок на торрент-файлы, которые содержат только списки хеш-сумм, убедительная просьба с жалобами обращаться напрямую к пользователю. Файлы для обмена на трекере предоставлены пользователями сайта, и администрация не несёт ответственности за их содержание. Просьба не заливать файлы, защищенные авторскими правами, а также файлы нелегального содержания!


    _________________
    [Профиль] [ЛС]
    Показать сообщения:    
    Ответить на тему

    Текущее время: Сегодня, в 16:31

    Часовой пояс: GMT + 2



    Вы не можете начинать темы
    Вы не можете отвечать на сообщения
    Вы не можете редактировать свои сообщения
    Вы не можете удалять свои сообщения
    Вы не можете голосовать в опросах
    Вы не можете прикреплять файлы к сообщениям
    Вы не можете скачивать файлы