BitTorrentTracker PerecTracker.org
BitTorrentTracker PerecTracker.org
    
Регистрация  ·  Вход
 
 · 
Забыли пароль?

  • Опасные каникулы (2016) WEB-DL [H.264/1080p-LQ]

    Ответить на тему
     
    Автор Сообщение

    Light

    Создавать темы 24-Ноя-2016 15:16

           

    [Цитировать]

    - Опасные каникулы (2016) WEB-DL [H.264/1080p-LQ] -Производство: Россия
    Жанр: Приключения, Семейный, Комедия
    Режиссер: Ольга Беляева
    Актеры: Евдокия Колесникова, Эрих Чупин, Константин Крюков, Ирина Скобцева, Сергей Никоненко, Иван Колесников.
    Описание:
    Сережа — типичный городской мальчишка. Так же, как и его сверстники, он проводит свои летние каникулы, играя в компьютерные игры. Однажды он вместе с родителями приезжает на все лето в Крым. Здесь его ждут завораживающая природа, новые друзья, головокружительные приключения с далеко не детскими испытаниями и опасностями!

    Возраст: 6+ (зрителям, достигшим 6 лет)
    Дата российской премьеры: 27 октября 2016, «Люксор»
    Продолжительность: 01:16:39
    Качество видео: WEB-DL 1080p
    Перевод: не требуется (русский, iTunes)
    Субтитры: Отсутствуют
    Видео: AVC/H.264, 1920x804, 25.000 fps, ~4498 Kbps
    Аудио: AC3, 6 ch, 384 Kbps, CBR
    Дополнительно: Сохранены оригинальные главы (чаптеры)
    Общее
    Уникальный идентификатор : 245271974831884353644008781825713988330 (0xB885AA0175A8E2FF9D5F2239C05962EA)
    Полное имя : D:\Фильмы\Мои раздачи\Опасные каникулы\Opasnye.kanikuly.2016.WEB-DL.1080p.mkv
    Формат : Matroska
    Версия формата : Version 2
    Размер файла : 2,67 Гбайт
    Продолжительность : 1 ч. 16 м.
    Общий поток : 4981 Кбит/сек
    Название фильма : Opasnye kanikuly (2016) - Release for HDCLUB
    Дата кодирования : UTC 2016-11-22 22:43:33
    Программа кодирования : mkvmerge v3.4.0 ('Rapunzel') built on May 15 2010 09:38:20
    Библиотека кодирования : libebml v0.8.0 + libmatroska v0.9.0
    Видео
    Идентификатор : 1
    Формат : AVC
    Формат/Информация : Advanced Video Codec
    Профиль формата : [url=mailto:High@L4.0]High@L4.0[/url]
    Параметр CABAC формата : Да
    Параметр ReFrames формата : 5 кадров
    Идентификатор кодека : V_MPEG4/ISO/AVC
    Продолжительность : 1 ч. 16 м.
    Битрейт : 4498 Кбит/сек
    Ширина : 1920 пикселей
    Высота : 804 пикселя
    Соотношение сторон : 2,40:1
    Режим частоты кадров : Постоянный
    Частота кадров : 25,000 кадров/сек
    Цветовое пространство : YUV
    Субдискретизация насыщенности : 4:2:0
    Битовая глубина : 8 бит
    Тип развёртки : Прогрессивная
    Бит/(Пиксели*Кадры) : 0.117
    Размер потока : 2,41 Гбайт (90%)
    Заголовок : Opasnye kanikuly (2016) - Release for HDCLUB
    Язык : Russian
    Default : Да
    Forced : Нет
    Основные цвета : BT.709
    Характеристики трансфера : BT.709
    Коэффициенты матрицы : BT.709
    Аудио
    Идентификатор : 2
    Формат : AC-3
    Формат/Информация : Audio Coding 3
    Расширение режима : CM (complete main)
    Параметр Endianness формата : Big
    Идентификатор кодека : A_AC3
    Продолжительность : 1 ч. 16 м.
    Вид битрейта : Постоянный
    Битрейт : 384 Кбит/сек
    Каналы : 6 каналов
    Расположение каналов : Front: L C R, Side: L R, LFE
    Частота : 48,0 КГц
    Битовая глубина : 16 бит
    Метод сжатия : С потерями
    Размер потока : 211 Мбайт (8%)
    Заголовок : AC3 5.1 @ 384 kbps
    Язык : Russian
    Default : Да
    Forced : Нет
    Меню
    00:00:00.000 : en:Глава 1
    00:03:57.520 : en:Глава 2
    00:08:18.840 : en:Глава 3
    00:14:03.840 : en:Глава 4
    00:19:15.840 : en:Глава 5
    00:24:02.240 : en:Глава 6
    00:28:46.600 : en:Глава 7
    00:33:31.840 : en:Глава 8
    00:39:04.960 : en:Глава 9
    00:45:06.200 : en:Глава 10
    00:50:19.120 : en:Глава 11
    00:55:24.560 : en:Глава 12
    01:01:50.040 : en:Глава 13
    01:06:35.520 : en:Глава 14
    01:10:43.520 : en:Глава 15Скриншоты:
    Все одноименные релизы в КлубеВремя раздачи: с 12:00 до 02:00 (до появления первых 3-5 скачавших)
    Скачать .torrent

    Скачать торрент-файл бесплатно и на максимальной скорости!

    Как скачивать? · Что такое торрент? · Рейтинг и ограничения

    !ВНИМАНИЕ!
    Сайт не распространяет и не хранит электронные версии произведений, а занимается лишь лишь предоставлением доступа к создаваемому пользователями каталогу ссылок на торрент-файлы, которые содержат только списки хеш-сумм, убедительная просьба с жалобами обращаться напрямую к пользователю. Файлы для обмена на трекере предоставлены пользователями сайта, и администрация не несёт ответственности за их содержание. Просьба не заливать файлы, защищенные авторскими правами, а также файлы нелегального содержания!


    _________________
    [Профиль] [ЛС]
    Показать сообщения:    
    Ответить на тему

    Текущее время: Сегодня, в 18:29

    Часовой пояс: GMT + 2



    Вы не можете начинать темы
    Вы не можете отвечать на сообщения
    Вы не можете редактировать свои сообщения
    Вы не можете удалять свои сообщения
    Вы не можете голосовать в опросах
    Вы не можете прикреплять файлы к сообщениям
    Вы не можете скачивать файлы