BitTorrentTracker PerecTracker.org
BitTorrentTracker PerecTracker.org
    
Регистрация  ·  Вход
 
 · 
Забыли пароль?

  • Любой ценой / Hell or High Water (Дэвид Маккензи / David Mackenzie ) [2016, США, Драма, криминал, BDRip, HD (720p)] DUB + Original + sub (eng)

    Ответить на тему
     
    Автор Сообщение

    rechyn

    Создавать темы 24-Ноя-2016 14:25

           

    [Цитировать]

    Любой ценой / Hell or High Water
    «Справедливость - это не преступление»
    -Год выпуска: 2016
    Страна: США
    Жанр: Драма, криминал
    Продолжительность: 01:42:15
    Перевод: Дублированный (iTunes)
    Оригинальная аудиодорожка: Есть
    Cубтитры: Английские
    Режиссёр: Дэвид Маккензи
    Сценарий: Тейлор Шеридан
    Продюсер: Питер Берг, Карла Хэкен, Сидни Киммел
    Оператор: Джиллз Натгенс
    Композитор: Ник Кейв, Уоррен Эллис
    Художник: Том Даффилд, Стив Купер, Малгозия Турзанска
    Монтаж: Джейк Робертс
    В ролях: Джефф Бриджес, Крис Пайн, Бен Фостер, Джил Бирмингем, Дейл Дикки, Уильям Стерчи, Бак Тейлор, Кристин Берг, Кит Мэривезер, Жакмо Буззел
    Бюджет: $12 000 000
    Сборы в США: $27 007 844
    Сборы в России: $162 143
    Мировая премьера: 16 мая 2016
    Премьера (РФ): 18 августа 2016, «Парадиз»
    Релиз на DVD: 23 декабря 2016, «Парадиз»
    Описание: Два брата-лузера решают наведаться в хранилища пары-тройки банков, которые много лет безбожно обкрадывают своих должников. Расследование дерзких ограблений с грубым почерком увенчает карьеру шерифа Маркуса. Но куда выведет это нехитрое дело?-Качество исходника: BDRemux (HDClub)
    Качество: BDRip
    Тип: HD (720p)
    Контейнер: M4V
    Видео: H.264, 1280x536, 2.40:1, 3 500 Kbps, 23.976 fps
    Аудио 1: Русский/Дублированный (iTunes), AAC / 2.0 / 160 Kbps / 48.0 KHz
    Аудио 2: Английский/Оригинальная дорожка , AAC / 2.0 / 160 Kbps / 48.0 KHz
    Аудио 3: Русский/Дублированный (iTunes), AC-3 / 5.1 / 384 Kbps / 48.0 KHz
    Аудио 4: Английский/Оригинальная дорожка , AC-3 / 5.1 / 640 Kbps / 48.0 KHz
    Субтитры: Английские полные
    -

    iTunes Meta Tags

    Sort Name: Hell or High Water
    XID: Apple:vendor_id:2016-726794
    contentID: 1139413055
    Screenwriters: Тейлор Шеридан
    Producers: Питер Берг, Карла Хэкен, Сидни Киммел
    Director: Дэвид Маккензи
    Cast: Джефф Бриджес, Крис Пайн, Бен Фостер, Джил Бирмингем, Дейл Дикки, Уильям Стерчи, Бак Тейлор, Кристин Берг, Кит Мэривезер, Жакмо Буззел
    Studio: Lionsgate
    Rating: 5
    Long Description: Два брата-лузера решают наведаться в хранилища пары-тройки банков, которые много лет безбожно обкрадывают своих должников. Расследование дерзких ограблений с грубым почерком увенчает карьеру шерифа Маркуса. Но куда выведет это нехитрое дело?
    Description: Два брата-лузера решают наведаться в хранилища пары-тройки банков, которые много лет безбожно обкрадывают своих должников. Расследование дерзких ограблений с грубым почерком увенчает карьеру шерифа Маркуса. Но куда выведет это нехитрое дело?
    Release Date: 2016-05-16T08:00:00Z
    Genre: Drama
    Artist: David Mackenzie
    Name: Hell or High Water

    MediaInfo

    General
    Complete name : /Users/imac/HandBrake/Hell or High Water (720p HD).m4v
    Format : MPEG-4
    Codec ID : M4V
    File size : 3.46 GiB
    Duration : 1h 42mn
    Overall bit rate mode : Variable
    Overall bit rate : 4 841 Kbps
    Movie name : Hell or High Water
    Performer : David Mackenzie
    Director : Дэвид Маккензи
    Actor : Джефф Бриджес / Крис Пайн / Бен Фостер / Джил Бирмингем / Дейл Дикки / Уильям Стерчи / Бак Тейлор / Кристин Берг / Кит Мэривезер / Жакмо Буззел
    Screenplay by : Тейлор Шеридан
    Producer : Питер Берг / Карла Хэкен / Сидни Киммел
    Production studio : Lionsgate
    Genre : Drama
    ContentType : Short Film
    Description : Два брата-лузера решают наведаться в хранилища пары-тройки банков, которые много лет безбожно обкрадывают своих должников. Расследование дерзких ограблений с грубым почерком увенчает карьеру шерифа Маркуса. Но куда выведет это нехитрое дело?
    Recorded date : UTC 2016-05-16 08:00:00
    Encoded date : UTC 2016-11-24 08:52:11
    Tagged date : UTC 2016-11-24 08:53:29
    Cover : Yes
    Rating : None
    Title/Sort : Hell or High Water
    LongDescription : Два брата-лузера решают наведаться в хранилища пары-тройки банков, которые много лет безбожно обкрадывают своих должников. Расследование дерзких ограблений с грубым почерком увенчает карьеру шерифа Маркуса. Но куда выведет это нехитрое дело?
    HDVideo : Yes
    AppleStoreCatalogID : 1139413055
    Vendor : Apple:vendor_id:2016-726794
    ContentRating : mpaa|R|400|
    Video #1
    ID : 1
    Format : AVC
    Format/Info : Advanced Video Codec
    Format profile : High@L3.1
    Format settings, CABAC : No
    Format settings, ReFrames : 3 frames
    Codec ID : avc1
    Codec ID/Info : Advanced Video Coding
    Duration : 1h 42mn
    Source duration : 1h 42mn
    Bit rate : 3 500 Kbps
    Width : 1 280 pixels
    Height : 536 pixels
    Display aspect ratio : 2.40:1
    Frame rate mode : Variable
    Frame rate : 23.976 fps
    Minimum frame rate : 23.974 fps
    Maximum frame rate : 23.981 fps
    Color space : YUV
    Chroma subsampling : 4:2:0
    Bit depth : 8 bits
    Scan type : Progressive
    Bits/(Pixel*Frame) : 0.213
    Stream size : 2.50 GiB (72%)
    Source stream size : 2.50 GiB (72%)
    Title : Main Program
    Writing library : x264 core 142 r2479 dd79a61
    Encoding settings : cabac=0 / ref=3 / deblock=1:-3:-3 / analyse=0x3:0x113 / me=umh / subme=9 / psy=1 / psy_rd=1.00:0.15 / mixed_ref=1 / me_range=32 / chroma_me=1 / trellis=0 / 8x8dct=1 / cqm=0 / deadzone=21,11 / fast_pskip=0 / chroma_qp_offset=-2 / threads=36 / lookahead_threads=3 / sliced_threads=0 / nr=0 / decimate=0 / interlaced=0 / bluray_compat=0 / constrained_intra=0 / bframes=3 / b_pyramid=0 / b_adapt=2 / b_bias=0 / direct=1 / weightb=0 / open_gop=0 / weightp=0 / keyint=240 / keyint_min=24 / scenecut=40 / intra_refresh=0 / rc_lookahead=40 / rc=2pass / mbtree=1 / bitrate=3500 / ratetol=1.0 / qcomp=0.65 / qpmin=0 / qpmax=69 / qpstep=4 / cplxblur=20.0 / qblur=0.5 / vbv_maxrate=9500 / vbv_bufsize=9500 / nal_hrd=none / filler=0 / ip_ratio=1.40 / aq=1:1.10
    Language : English
    Encoded date : UTC 2016-11-24 08:52:11
    Tagged date : UTC 2016-11-24 08:52:16
    Color range : Limited
    Color primaries : BT.709
    Transfer characteristics : BT.709
    Matrix coefficients : BT.709
    Video #2
    ID : 8
    Format : JPEG
    Codec ID : jpeg
    Duration : 1h 42mn
    Bit rate mode : Variable
    Bit rate : 1 186 bps
    Width : 640 pixels
    Height : 268 pixels
    Display aspect ratio : 2.40:1
    Frame rate mode : Variable
    Frame rate : 0.003 fps
    Minimum frame rate : 0.002 fps
    Maximum frame rate : 0.005 fps
    Color space : YUV
    Chroma subsampling : 4:2:0
    Bit depth : 8 bits
    Compression mode : Lossy
    Bits/(Pixel*Frame) : 2.305
    Stream size : 772 KiB (0%)
    Title : Chapter Images
    Language : English
    Encoded date : UTC 2016-11-24 08:52:50
    Tagged date : UTC 2016-11-24 08:52:51
    Audio #1
    ID : 2
    Format : AAC
    Format/Info : Advanced Audio Codec
    Format profile : LC
    Codec ID : 40
    Duration : 1h 42mn
    Bit rate mode : Variable
    Bit rate : 159 Kbps
    Maximum bit rate : 215 Kbps
    Channel(s) : 2 channels
    Channel positions : Front: L R
    Sampling rate : 48.0 KHz
    Compression mode : Lossy
    Stream size : 109 MiB (3%)
    Title : Russian Stereo
    Language : Russian
    Encoded date : UTC 2016-11-24 08:52:12
    Tagged date : UTC 2016-11-24 08:52:47
    Audio #2
    ID : 3
    Format : AAC
    Format/Info : Advanced Audio Codec
    Format profile : LC
    Codec ID : 40
    Duration : 1h 42mn
    Bit rate mode : Variable
    Bit rate : 157 Kbps
    Maximum bit rate : 248 Kbps
    Channel(s) : 2 channels
    Channel positions : Front: L R
    Sampling rate : 48.0 KHz
    Compression mode : Lossy
    Stream size : 115 MiB (3%)
    Title : English Stereo
    Language : English
    Encoded date : UTC 2016-11-24 08:52:12
    Tagged date : UTC 2016-11-24 08:52:47
    Audio #3
    ID : 4
    Format : AC-3
    Format/Info : Audio Coding 3
    Mode extension : CM (complete main)
    Format settings, Endianness : Big
    Codec ID : ac-3
    Duration : 1h 42mn
    Bit rate mode : Constant
    Bit rate : 384 Kbps
    Channel(s) : 6 channels
    Channel positions : Front: L C R, Side: L R, LFE
    Sampling rate : 48.0 KHz
    Bit depth : 16 bits
    Compression mode : Lossy
    Stream size : 281 MiB (8%)
    Title : Russian DD 5.1
    Language : Russian
    Encoded date : UTC 2016-11-24 08:52:12
    Tagged date : UTC 2016-11-24 08:52:47
    Audio #4
    ID : 5
    Format : AC-3
    Format/Info : Audio Coding 3
    Mode extension : CM (complete main)
    Format settings, Endianness : Big
    Codec ID : ac-3
    Duration : 1h 42mn
    Bit rate mode : Constant
    Bit rate : 640 Kbps
    Channel(s) : 6 channels
    Channel positions : Front: L C R, Side: L R, LFE
    Sampling rate : 48.0 KHz
    Bit depth : 16 bits
    Compression mode : Lossy
    Stream size : 468 MiB (13%)
    Title : English DD 5.1
    Language : English
    Encoded date : UTC 2016-11-24 08:52:12
    Tagged date : UTC 2016-11-24 08:52:47
    Text
    ID : 6
    Format : Timed Text
    Muxing mode : sbtl
    Codec ID : tx3g
    Duration : 1h 36mn
    Bit rate mode : Variable
    Bit rate : 58 bps
    Stream size : 40.9 KiB (0%)
    Title : English full
    Language : English
    Encoded date : UTC 2016-11-24 08:52:12
    Tagged date : UTC 2016-11-24 08:52:45
    Menu #1
    00:00:00.000 : Chapter 1
    00:09:37.327 : Chapter 2
    00:13:50.455 : Chapter 3
    00:22:14.667 : Chapter 4
    00:28:40.469 : Chapter 5
    00:31:54.412 : Chapter 6
    00:40:49.656 : Chapter 7
    00:46:49.974 : Chapter 8
    00:55:45.133 : Chapter 9
    01:02:06.556 : Chapter 10
    01:09:52.980 : Chapter 11
    01:14:04.732 : Chapter 12
    01:20:56.310 : Chapter 13
    01:29:09.219 : Chapter 14
    01:35:03.573 : Chapter 15
    01:38:28.361 : Chapter 16
    Menu #2
    ID : 7
    Codec ID : text
    Duration : 1h 42mn
    Language : English
    Encoded date : UTC 2016-11-24 08:52:47
    Tagged date : UTC 2016-11-24 08:52:47
    00:00:00.000 : Chapter 1
    00:09:37.327 : Chapter 2
    00:13:50.455 : Chapter 3
    00:22:14.667 : Chapter 4
    00:28:40.469 : Chapter 5
    00:31:54.412 : Chapter 6
    00:40:49.656 : Chapter 7
    00:46:49.974 : Chapter 8
    00:55:45.133 : Chapter 9
    01:02:06.556 : Chapter 10
    01:09:52.980 : Chapter 11
    01:14:04.732 : Chapter 12
    01:20:56.310 : Chapter 13
    01:29:09.219 : Chapter 14
    01:35:03.573 : Chapter 15
    01:38:28.361 : Chapter 16
    Bit rate mode : VBR

    x264 лог

    x264 [info]: frame I:1012  Avg QP:17.13  size:108914
    x264 [info]: frame P:50902 Avg QP:19.53  size: 35824
    x264 [info]: frame B:95189 Avg QP:21.07  size:  7889
    x264 [info]: consecutive B-frames:  2.6% 21.4% 35.9% 40.1%
    x264 [info]: mb I  I16..4:  5.9% 57.0% 37.1%
    x264 [info]: mb P  I16..4:  1.6%  4.6%  2.1%  P16..4: 47.9% 28.4% 12.1%  0.0%  0.0%    skip: 3.3%
    x264 [info]: mb B  I16..4:  0.2%  0.6%  0.2%  B16..8: 45.7%  9.9%  1.7%  direct: 3.8%  skip:37.9%  L0:40.6% L1:51.6% BI: 7.8%
    x264 [info]: 8x8 transform intra:56.4% inter:46.8%
    x264 [info]: coded y,uvDC,uvAC intra: 78.3% 75.4% 47.2% inter: 28.2% 21.4% 9.9%
    x264 [info]: i16 v,h,dc,p: 44% 25%  6% 25%
    x264 [info]: i8 v,h,dc,ddl,ddr,vr,hd,vl,hu: 12% 10%  7% 10% 14% 13% 14% 10% 10%
    x264 [info]: i4 v,h,dc,ddl,ddr,vr,hd,vl,hu: 12% 11%  4% 10% 16% 15% 14% 10%  9%
    x264 [info]: i8c dc,h,v,p: 46% 23% 20% 11%
    x264 [info]: ref P L0: 70.5% 17.2% 12.3%
    x264 [info]: ref B L0: 78.6% 21.4%
    x264 [info]: kb/s:3500.63

    Скриншоты

    -

    Релиз подготовлен для просмотра на Apple TV, iPad, iPhone, iPod Touch.
    Для просмотра данного релиза на компьютере с ОС Windows рекомендуется использовать VLC media player
    Скачать .torrent

    Скачать торрент-файл бесплатно и на максимальной скорости!

    Как скачивать? · Что такое торрент? · Рейтинг и ограничения

    !ВНИМАНИЕ!
    Сайт не распространяет и не хранит электронные версии произведений, а занимается лишь лишь предоставлением доступа к создаваемому пользователями каталогу ссылок на торрент-файлы, которые содержат только списки хеш-сумм, убедительная просьба с жалобами обращаться напрямую к пользователю. Файлы для обмена на трекере предоставлены пользователями сайта, и администрация не несёт ответственности за их содержание. Просьба не заливать файлы, защищенные авторскими правами, а также файлы нелегального содержания!


    _________________
    [Профиль] [ЛС]
    Показать сообщения:    
    Ответить на тему

    Текущее время: Сегодня, в 16:38

    Часовой пояс: GMT + 2



    Вы не можете начинать темы
    Вы не можете отвечать на сообщения
    Вы не можете редактировать свои сообщения
    Вы не можете удалять свои сообщения
    Вы не можете голосовать в опросах
    Вы не можете прикреплять файлы к сообщениям
    Вы не можете скачивать файлы