BitTorrentTracker PerecTracker.org
BitTorrentTracker PerecTracker.org
    
Регистрация  ·  Вход
 
 · 
Забыли пароль?

  • А ты какого знака зодиака? / Ma tu di che segno 6? (Нери Паренти / Neri Parenti) [2014, Италия, комедия, DVDRip] + Sub Rus + Original Ita

    Ответить на тему
     
    Автор Сообщение

    Light

    Создавать темы 24-Ноя-2016 14:25

           

    [Цитировать]

    А ты какого знака зодиака? / Ma tu di che segno 6?
    Страна: Италия
    Жанр: комедия
    Год выпуска: 2014
    Продолжительность: 01:34:00
    Перевод: Субтитры
    Cубтитры: русские (перевод ”NASA”)
    Оригинальная аудиодорожка: итальянский
    Режиссер: Нери Паренти / Neri Parenti
    В ролях: Массимо Болди ("Каникулы в Майами", "Исключительно правдиво", "Школа воров"), Рикки Мемфис ("Невероятные приключения итальянцев в Америке", "Милан-Палермо: Возвращение"), Джиджи Пройетти ("Не хочу тебя больше знать, любимый", "Угадай, кто придет на Рождество", "Я предпочитаю рай"), Винченцо Салемме ("Невероятные приключения итальянцев в Америке"), Пио и Амедео, Ванесса Эсслер ("Золушка", "Американская девочка", "Каникулы в Майами", "Астерикс на Олимпийских играх", "Слишком красивые, чтобы умереть"), Анджело Пинтус, Марианна Родригес, Дениз Тантуччи, Паоло Фокс (итальянский астролог)
    Описание: В центре сюжета (режиссер Нери Паренти, известный по фильмам про Фантоцци и «Школа воров») – одержимость итальянцев гороскопами. Идея снять этот фильм родилась, когда Нери Паренти обнаружил, что в поисковых системах "гороскоп" находится по частоте запросов между "погодой" и "Папой".
    В фильме причудливо переплетены трагикомические сюжеты с представителями различных знаков Зодиака. Главные герои: патологический ревнивец, майор карабинеров Августо Фиоретти, его дочь Илария и его подчиненный сержант Квальярулло; ипохондрик кавальере Карло Рабальяти, продавец бытовой техники Сатурно Болло, в силу «предсказаний» гороскопа разрывающийся между красавицей Ниной Рокки и уродливой Вандой; адвокат Джулиано Де Маркис, впадающий в амнезию; астролог Пьеро Ло Мушо – он же Орион, пытающийся помочь своему другу Андреа Трикарико, который добивается своей новой соседки Моники…
    Дополнительная информация
    Любопытно, что в фильме "Лошадиная лихорадка/Безумные скачки/Febbre da cavallo" (1976) также есть персонаж с именем "адвокат Маркис", и в том же фильме играет Джиджи Пройетти, но не адвоката.
    Сэмпл: https://yadi.sk/i/009g7_fTzDTQv
    Качество видео: DVDRip
    Формат видео: AVI
    Видео: 720x384 (1.85:1), 25 fps, XviD MPEG4 ~1766 kbps avg, 0,255 bits/(pixel*frame)
    Аудио: 48 kHz, AC3 Dolby Digital, 3/2 (L,C,R,l,r) + LFE ch, ~448.00 kbps avg
    Формат субтитров: softsub (SRT)

    MediaInfo

    Формат : AVI
    Формат/Информация : Audio Video Interleave
    Размер файла : 1,46 Гбайт
    Продолжительность : 1 ч. 34 м.
    Общий поток : 2221 Кбит/сек
    Программа кодирования : VirtualDubMod 1.5.4.1 (build 2178/release)
    Библиотека кодирования : VirtualDubMod build 2178/release
    Видео
    Идентификатор : 0
    Формат : MPEG-4 Visual
    Профиль формата : Advanced Simple@L5
    Параметр BVOP формата : 1
    Параметр QPel формата : Нет
    Параметр GMC формата : Без точки перехода
    Параметр матрицы формата : Выборочная
    Идентификатор кодека : XVID
    Идентификатор кодека/Подсказка : XviD
    Продолжительность : 1 ч. 34 м.
    Битрейт : 1766 Кбит/сек
    Ширина : 720 пикселей
    Высота : 384 пикселя
    Соотношение сторон : 1,85:1
    Частота кадров : 25,000 кадров/сек
    Цветовое пространство : YUV
    Субдискретизация насыщенности : 4:2:0
    Битовая глубина : 8 бит
    Тип развёртки : Прогрессивная
    Метод сжатия : С потерями
    Бит/(Пиксели*Кадры) : 0.255
    Размер потока : 1,16 Гбайт (80%)
    Библиотека кодирования : XviD 64
    Аудио
    Идентификатор : 1
    Формат : AC-3
    Формат/Информация : Audio Coding 3
    Расширение режима : CM (complete main)
    Параметр Endianness формата : Big
    Идентификатор кодека : 2000
    Продолжительность : 1 ч. 34 м.
    Вид битрейта : Постоянный
    Битрейт : 448 Кбит/сек
    Каналы : 6 каналов
    Расположение каналов : Front: L C R, Side: L R, LFE
    Частота : 48,0 КГц
    Битовая глубина : 16 бит
    Метод сжатия : С потерями
    Размер потока : 301 Мбайт (20%)
    Выравнивание : Разделение по промежуткам
    Продолжительность промежутка : 96 мс. (2,40 видеокадра)
    Время предзагрузки промежутка : 96 мс.
    Язык : Italiano

    Скриншоты

    пример субтитров

    803
    00:47:19,280 --> 00:47:20,930
    За работу, давай!
    804
    00:47:22,000 --> 00:47:28,770
    У телевизора нужно устроить
    красивую подборку порнофильмов.
    805
    00:47:29,760 --> 00:47:35,563
    Презервативы должны быть разбросаны тут и там хаотично.
    806
    00:47:35,640 --> 00:47:38,405
    На кухне немного виагры, и ещё немного в ванной.
    807
    00:47:38,480 --> 00:47:40,289
    А стринги?
    808
    00:47:40,360 --> 00:47:43,091
    Одни на биде, другие под подушкой.
    809
    00:47:44,320 --> 00:47:48,325
    Нужно изменить фоновый рисунок компьютера.
    810
    00:47:48,400 --> 00:47:53,406
    Вместо двух красногрудых малиновок,
    поставим большую женскую грудь.
    811
    00:47:55,280 --> 00:47:59,763
    Вместо птичьих грудок красных
    ставим женских две прекрасных!
    812
    00:47:59,840 --> 00:48:03,208
    Это шутка. Нет, ты не из Неаполя.
    813
    00:48:03,280 --> 00:48:05,248
    - О!
    - Что такое?
    814
    00:48:06,680 --> 00:48:08,887
    - Ничего.
    - У меня ёкнуло сердце.
    815
    00:48:08,960 --> 00:48:13,568
    Вы же завсегда мне говорили:
    «Держи глаза всё время открытыми».
    816
    00:48:13,640 --> 00:48:15,404
    Это я говорю?
    817
    00:48:15,480 --> 00:48:19,485
    Ограничься тем, что имитируешь мою жену.
    818
    00:48:19,560 --> 00:48:22,689
    Аугусто, оставайся всегда с этими
    широко раскрытыми глазами!
    819
    00:48:22,760 --> 00:48:25,206
    Это её фирменный тембр голоса.
    820
    00:48:25,280 --> 00:48:27,965
    Женские образы Вам удаются лучше.
    821
    00:48:42,240 --> 00:48:44,811
    Добрый день. Вы кого-то ожидаете?
    822
    00:48:44,880 --> 00:48:46,723
    Похоже на то.
    823
    00:48:46,800 --> 00:48:50,521
    - Адвокат! Я здесь!
    - А, понял, Вы с уважаемым Паннути?
    824
    00:48:50,600 --> 00:48:52,329
    Пойдемте, я Вас провожу.
    Скачать .torrent

    Скачать торрент-файл бесплатно и на максимальной скорости!

    Как скачивать? · Что такое торрент? · Рейтинг и ограничения

    !ВНИМАНИЕ!
    Сайт не распространяет и не хранит электронные версии произведений, а занимается лишь лишь предоставлением доступа к создаваемому пользователями каталогу ссылок на торрент-файлы, которые содержат только списки хеш-сумм, убедительная просьба с жалобами обращаться напрямую к пользователю. Файлы для обмена на трекере предоставлены пользователями сайта, и администрация не несёт ответственности за их содержание. Просьба не заливать файлы, защищенные авторскими правами, а также файлы нелегального содержания!


    _________________
    [Профиль] [ЛС]
    Показать сообщения:    
    Ответить на тему

    Текущее время: Сегодня, в 14:29

    Часовой пояс: GMT + 2



    Вы не можете начинать темы
    Вы не можете отвечать на сообщения
    Вы не можете редактировать свои сообщения
    Вы не можете удалять свои сообщения
    Вы не можете голосовать в опросах
    Вы не можете прикреплять файлы к сообщениям
    Вы не можете скачивать файлы