BitTorrentTracker PerecTracker.org
BitTorrentTracker PerecTracker.org
    
Регистрация  ·  Вход
 
 · 
Забыли пароль?

  • Сноуден / Snowden (Оливер Стоун / Oliver Stone) [2016, США, Триллер, драма, биография, WEB-DLRip] Dub (Line) + Original (Eng)

    Ответить на тему
     
    Автор Сообщение

    rechyn

    Создавать темы 24-Ноя-2016 01:45

           

    [Цитировать]

    Сноуден / Snowden
    «Беги, пока можешь»
    -Год выхода: 2016
    Выпущено: Франция, Германия, США / Endgame Entertainment
    Жанр: триллер, драма, биография
    Продолжительность: 02:14:06
    Перевод: Профессиональный (полное дублирование) Line
    Субтитры: нет
    Оригинальная аудиодорожка: Английская-Режиссер:
    Оливер Стоун / Oliver Stone-В ролях:
    Джозеф Гордон-Левитт, Шейлин Вудли, Мелисса Лео, Закари Куинто, Том Уилкинсон, Скотт Иствуд, Рис Иванс, Николас Кейдж, Тимоти Олифант, Джеймс Батлер-О фильме:
    Он мечтал продолжить семейную традицию и посвятить свою жизнь служению Родине. Он безоговорочно верил в правительство США и поддерживал антитеррористическую программу. На заре его карьеры в спецслужбах никто, даже он сам, не мог бы предположить, что именно он, Эдвард Сноуден, совершит самое крупное разоблачение в мировой истории, обнародовав секретные документы, касающиеся тотальной слежки США за своими гражданами и гражданами других государств. Открыв миру глаза на правду, он навсегда закрыл для себя двери в счастливое будущее: отказался от карьеры, любимой девушки и Родины, которая назвала его предателем…-| | | Сэмпл | Рекламы нет!-Качество: WEB-DLRip [Snowden.2016.1080p.WEB-DL.DD5.1.H264-FGT]
    Формат: AVI
    Видео: 720x304 (2.37:1), 24.000 fps, XviD build 67 ~1164 kbps avg, 0.22 bit/pixel
    Аудио #1: 48 kHz, AC3 Dolby Digital, 2/0 (L,R) ch, ~192 kbps (RUS) - Line
    Аудио #2: 48 kHz, AC3 Dolby Digital, 2/0 (L,R) ch, ~192 kbps (ENG)
    -

    Скриншоты

    -

    MediaInfo

    Общее
    Полное имя                               : D:\Snowden_2016_WEB-DLRip_Line_by_Dalemake.avi
    Формат                                   : AVI
    Формат/Информация                        : Audio Video Interleave
    Размер файла                             : 1,46 Гбайт
    Продолжительность                        : 2 ч. 14 м.
    Общий поток                              : 1563 Кбит/сек
    Программа кодирования                    : VirtualDubMod 1.5.10.3 | www.virtualdub-fr.org || (build 2550/release)
    Библиотека кодирования                   : VirtualDubMod build 2550/release
    Видео
    Идентификатор                            : 0
    Формат                                   : MPEG-4 Visual
    Профиль формата                          : Advanced Simple@L5
    Параметр BVOP формата                    : 1
    Параметр QPel формата                    : Нет
    Параметр GMC формата                     : Без точки перехода
    Параметр матрицы формата                 : Выборочная
    Идентификатор кодека                     : XVID
    Идентификатор кодека/Подсказка           : XviD
    Продолжительность                        : 2 ч. 14 м.
    Битрейт                                  : 1165 Кбит/сек
    Ширина                                   : 720 пикселей
    Высота                                   : 304 пикселя
    Соотношение сторон                       : 2,35:1
    Частота кадров                           : 24,000 кадра/сек
    Цветовое пространство                    : YUV
    Субдискретизация насыщенности            : 4:2:0
    Битовая глубина                          : 8 бит
    Тип развёртки                            : Прогрессивная
    Метод сжатия                             : С потерями
    Бит/(Пиксели*Кадры)                      : 0.222
    Размер потока                            : 1,09 Гбайт (75%)
    Библиотека кодирования                   : XviD 67
    Аудио #1
    Идентификатор                            : 1
    Формат                                   : AC-3
    Формат/Информация                        : Audio Coding 3
    Расширение режима                        : CM (complete main)
    Параметр Endianness формата              : Big
    Идентификатор кодека                     : 2000
    Продолжительность                        : 2 ч. 14 м.
    Вид битрейта                             : Постоянный
    Битрейт                                  : 192 Кбит/сек
    Каналы                                   : 2 канала
    Расположение каналов                     : Front: L R
    Частота                                  : 48,0 КГц
    Битовая глубина                          : 16 бит
    Метод сжатия                             : С потерями
    Размер потока                            : 184 Мбайт (12%)
    Выравнивание                             : Разделение по промежуткам
    Продолжительность промежутка             : 42  мс. (1,00 видеокадр)
    Время предзагрузки промежутка            : 500  мс.
    Аудио #2
    Идентификатор                            : 2
    Формат                                   : AC-3
    Формат/Информация                        : Audio Coding 3
    Расширение режима                        : CM (complete main)
    Параметр Endianness формата              : Big
    Идентификатор кодека                     : 2000
    Продолжительность                        : 2 ч. 14 м.
    Вид битрейта                             : Постоянный
    Битрейт                                  : 192 Кбит/сек
    Каналы                                   : 2 канала
    Расположение каналов                     : Front: L R
    Частота                                  : 48,0 КГц
    Битовая глубина                          : 16 бит
    Метод сжатия                             : С потерями
    Размер потока                            : 184 Мбайт (12%)
    Выравнивание                             : Разделение по промежуткам
    Продолжительность промежутка             : 42  мс. (1,00 видеокадр)
    Время предзагрузки промежутка            : 500  мс.
    -
    Скачать .torrent

    Скачать торрент-файл бесплатно и на максимальной скорости!

    Как скачивать? · Что такое торрент? · Рейтинг и ограничения

    !ВНИМАНИЕ!
    Сайт не распространяет и не хранит электронные версии произведений, а занимается лишь лишь предоставлением доступа к создаваемому пользователями каталогу ссылок на торрент-файлы, которые содержат только списки хеш-сумм, убедительная просьба с жалобами обращаться напрямую к пользователю. Файлы для обмена на трекере предоставлены пользователями сайта, и администрация не несёт ответственности за их содержание. Просьба не заливать файлы, защищенные авторскими правами, а также файлы нелегального содержания!


    _________________
    [Профиль] [ЛС]
    Показать сообщения:    
    Ответить на тему

    Текущее время: Сегодня, в 16:23

    Часовой пояс: GMT + 2



    Вы не можете начинать темы
    Вы не можете отвечать на сообщения
    Вы не можете редактировать свои сообщения
    Вы не можете удалять свои сообщения
    Вы не можете голосовать в опросах
    Вы не можете прикреплять файлы к сообщениям
    Вы не можете скачивать файлы