BitTorrentTracker PerecTracker.org
BitTorrentTracker PerecTracker.org
    
Регистрация  ·  Вход
 
 · 
Забыли пароль?

  • Просто полицейская / Flic, tout simplement / The Bastille Killer - A Woman\'s Fight (Ив Ренье / Yves Renier) [2015, Франция, Бельгия, детектив, триллер, экранизация, DVB] Original (Fre) + Sub (Rus, Eng, Fre, Deu)

    Ответить на тему
     
    Автор Сообщение

    Light

    Создавать темы 23-Ноя-2016 21:05

           

    [Цитировать]

    Просто полицейская
    Flic, tout simplement-Страна: Франция, Бельгия
    Жанр: детектив, триллер, экранизация
    Год выпуска: 2015
    Продолжительность: 01:33:59
    Перевод: Субтитры (перевод А.Вижье, Éclair Media)
    Cубтитры: русские, английские, французские, немецкие, нидерландские
    Оригинальная аудиодорожка: французский
    Режиссер: Ив Ренье / Yves RénierВ ролях: Матильда Сенье / Mathilde Seigner (Martine Monteil), Филипп Торретон / Philippe Torreton (Commandant Cardella), Ив Ренье / Yves Rénier (Le Directeur PJ Devaire), Камель Бельгази / Kamel Belghazi (Pascal Denner), Саманта Ренье / Samantha Rénier (Éliane Franchi), Каролина Юрчак / Carolina Jurczak (Hélène Monteil)
    Описание: по одноименной автобиографической книге Мартин Монтей / Martine Monteil и Мишеля Лафона / Michel Lafon (2008)
    Париж, 1996 год. Мартин Монтей - первая женщина-руководитель Криминального отдела. Потрясенная смертью одной из жертв маньяка из восточного Парижа, она поставила себе целью выследить этого опасного психопата, уже несколько лет подряд совершавшего жестокие изнасилования и убийства женщин в районе площади Бастилии и прозванного репортерами "Бастильским мясником". Чтобы добиться этого, она хочет создать базу ДНК и заставить сотрудничать зачастую конкурирующие отделы...
    Доп. информация: Hot Bird (13.0°E) TV5MONDE Europe DVB-S
    Участник Festival de la fiction TV de la Rochelle 2015.

    Качество видео: DVB
    Формат видео: MKV
    Видео: MPEG Video 2, 720x576@1024x576 (16:9), 25 fps, ~2880 kbps avg, 0.278 bit/pixel
    Аудио: MPEG Audio 2, 2 ch, 48 kHz, 192 kbps - французский
    Формат субтитров: softsub (SRT)

    Пример субтитров

    100:00:12,652 --> 00:00:15,652ПРОСТО ПОЛИЦЕЙСКАЯ
    200:02:35,696 --> 00:02:37,777Алло.
    300:02:37,777 --> 00:02:40,137Да.
    400:02:40,137 --> 00:02:42,136Не сможешь зайти?
    500:02:42,136 --> 00:02:44,093Ничего.
    600:02:44,093 --> 00:02:46,336Встретимся там.
    700:02:46,336 --> 00:02:47,854Я уже выхожу.
    800:02:47,854 --> 00:02:50,854Целую.
    900:03:01,534 --> 00:03:04,455Папа, неужелитебе нечем заняться на пенсии?
    1000:03:04,455 --> 00:03:06,335Я скучаю по этой атмосфере.
    1100:03:06,335 --> 00:03:08,287Меня замучила атмосфера.
    1200:03:08,287 --> 00:03:10,382Вот я и пришел.
    1300:03:10,382 --> 00:03:11,779Чем вы сейчас заняты?
    1400:03:11,779 --> 00:03:14,779Две группы заняты сериейограблений в 94-м департаменте.
    1500:03:15,373 --> 00:03:17,058-Ребята серьезные?-Да.
    1600:03:17,058 --> 00:03:18,652Преступная группировка.
    1700:03:18,652 --> 00:03:21,296От них чего угодно жди.
    1800:03:21,296 --> 00:03:23,945А я все выходныепросижу тут.
    1900:03:23,945 --> 00:03:26,945Дежурство.Не повезло.
    2000:03:28,336 --> 00:03:31,336Монтей. Слушаю.

    MediaInfo

    GeneralUnique ID : 250287034529933363733112593939471492475 (0xBC4B8789FD6711A2ADA4666A0943657B)Complete name : [apreder]Flic_tout_simplement(2015)DVB.mkvFormat : MatroskaFormat version : Version 2File size : 2.06 GiBDuration : 1 h 33 minOverall bit rate : 3 134 kb/sMovie name : Flic, tout simplementReleased date : 2016-01-20Encoded date : UTC 2016-11-23 14:02:48Writing application : mkvmerge v9.5.0 ('Quiet Fire') 64bitWriting library : libebml v1.3.4 + libmatroska v1.4.5Cover : YesAttachments : cover.jpg / small_cover.jpgACTOR : Mathilde Seigner, Philippe Torreton, Yves RйnierDIRECTOR : Yves RйnierGENRE : Biography, Crime, DramaIMDB : tt5123442KEYWORDS : perectracker.orgLAW_RATING : 16+
    VideoID : 1Format : MPEG VideoFormat version : Version 2Format profile : Main@MainFormat settings, BVOP : YesFormat settings, Matrix : CustomFormat settings, GOP : M=4, N=12Format settings, picture structure : FrameCodec ID : V_MPEG2Codec ID/Info : MPEG 1 or 2 VideoDuration : 1 h 33 minBit rate mode : ConstantBit rate : 2 880 kb/sMaximum bit rate : 3 200 kb/sWidth : 720 pixelsHeight : 576 pixelsDisplay aspect ratio : 16:9Frame rate mode : ConstantFrame rate : 25.000 FPSStandard : PALColor space : YUVChroma subsampling : 4:2:0Bit depth : 8 bitsScan type : InterlacedScan order : Top Field FirstCompression mode : LossyBits/(Pixel*Frame) : 0.278Stream size : 1.89 GiB (92%)Default : YesForced : No
    AudioID : 2Format : MPEG AudioFormat version : Version 1Format profile : Layer 2Mode : Joint stereoMode extension : Intensity Stereo + MS StereoCodec ID : A_MPEG/L2Codec ID/Hint : MP2Duration : 1 h 33 minBit rate mode : ConstantBit rate : 192 kb/sChannel(s) : 2 channelsSampling rate : 48.0 kHzCompression mode : LossyStream size : 129 MiB (6%)Language : FrenchDefault : YesForced : No
    Text #1ID : 3Format : UTF-8Codec ID : S_TEXT/UTF8Codec ID/Info : UTF-8 Plain TextLanguage : RussianDefault : NoForced : No
    Text #2ID : 4Format : UTF-8Codec ID : S_TEXT/UTF8Codec ID/Info : UTF-8 Plain TextLanguage : EnglishDefault : NoForced : No
    Text #3ID : 5Format : UTF-8Codec ID : S_TEXT/UTF8Codec ID/Info : UTF-8 Plain TextLanguage : FrenchDefault : NoForced : No
    Text #4ID : 6Format : UTF-8Codec ID : S_TEXT/UTF8Codec ID/Info : UTF-8 Plain TextLanguage : GermanDefault : NoForced : No
    Text #5ID : 7Format : UTF-8Codec ID : S_TEXT/UTF8Codec ID/Info : UTF-8 Plain TextLanguage : DutchDefault : NoForced : No

    Скриншот c названием фильма

    Скриншоты

    Резервные скриншоты


    -
    Скачать .torrent

    Скачать торрент-файл бесплатно и на максимальной скорости!

    Как скачивать? · Что такое торрент? · Рейтинг и ограничения

    !ВНИМАНИЕ!
    Сайт не распространяет и не хранит электронные версии произведений, а занимается лишь лишь предоставлением доступа к создаваемому пользователями каталогу ссылок на торрент-файлы, которые содержат только списки хеш-сумм, убедительная просьба с жалобами обращаться напрямую к пользователю. Файлы для обмена на трекере предоставлены пользователями сайта, и администрация не несёт ответственности за их содержание. Просьба не заливать файлы, защищенные авторскими правами, а также файлы нелегального содержания!


    _________________
    [Профиль] [ЛС]
    Показать сообщения:    
    Ответить на тему

    Текущее время: Сегодня, в 20:05

    Часовой пояс: GMT + 2



    Вы не можете начинать темы
    Вы не можете отвечать на сообщения
    Вы не можете редактировать свои сообщения
    Вы не можете удалять свои сообщения
    Вы не можете голосовать в опросах
    Вы не можете прикреплять файлы к сообщениям
    Вы не можете скачивать файлы