BitTorrentTracker PerecTracker.org
BitTorrentTracker PerecTracker.org
    
Регистрация  ·  Вход
 
 · 
Забыли пароль?

  • Сказка о том, кто ходил страху учиться / Von einem, der auszog, das Fürchten zu lernen (Тобиаш Виеманн / Tobias Wiemann) [2014, Германия, фэнтези, приключения, семейный, HDTV 1080i] MVO (Игмар) + VO (Павел Морозов) + Original Ger + Sub Rus

    Ответить на тему
     
    Автор Сообщение

    Light

    Создавать темы 23-Ноя-2016 17:00

           

    [Цитировать]

    Сказка о том, кто ходил страху учиться / Von einem, der auszog, das Fürchten zu lernen

    Страна: Германия
    Жанр: фэнтези, приключения, семейный
    Год выпуска: 2014
    Продолжительность: 00:58:10
    Перевод 1: Профессиональный (многоголосый закадровый) Компания "Игмар"
    Перевод 2: Одноголосый закадровый (Павел Морозов aka PashaUp)
    Cубтитры: русские (перевод с немецкого Алексей Королёв)
    Оригинальная аудиодорожка: немецкий
    Режиссер: Тобиаш Виеманн / Tobias Wiemann
    В ролях: Изольда Дихаук, Тим Оливер Шульц, Хайнер Лаутербах, Рик Каваниан, Милан Пешель
    Описание: Младший из двух сыновей горшечника, Михель, тоже горшечник, и в этом он, собственно, ничем не отличается от отца с братом. Но есть у него одна особенность, которая отличает его от всех - он не умеет бояться, он даже представить себе не может что такое страх. Брат смеется над ним, отец негодует, а ему хоть бы что. Жил бы он себе так и жил, но вот, гуляя в лесу, он встретил очень красивую девушку, принцессу, в которую тут же влюбился. Брат не упустил случая снова подтрунить над ним,- дескать куда тебе, даже бояться не умеешь. Теперь Михель твердо решил во что бы то ни стало избавиться от этого недостатка и отправился учиться страху...

    Сэмпл: https://yadi.sk/d/0kHv-OQ_z8csM
    Тип релиза: HDTV 1080i
    Контейнер: MKV
    Видео: AVC, 1920x1080, 16:9, 4756 kbps, 25.000 fps
    Аудио 1: RUS, AC3, 2.0, 48 kHz, 192 kbps – MVO (Игмар)
    Аудио 2: RUS, AC3, 2.0, 48 kHz, 192 kbps – VO (Павел Морозов)
    Аудио 3: GER, AC3, 2.0, 48 kHz, 192 kbps
    Формат субтитров: softsub (SRT)

    MediaInfo

    General
    Unique ID : 211350352022411539160970675052281205595 (0x9F0098E03E2C688F9AEF5266F7EE135B)
    Complete name : Сказка о том, кто ходил страху учиться [2014] 1080p.mkv
    Format : Matroska
    Format version : Version 4 / Version 2
    File size : 2.21 GiB
    Duration : 58mn 10s
    Overall bit rate : 5 437 Kbps
    Encoded date : UTC 2016-11-21 10:37:24
    Writing application : mkvmerge v8.3.0 ('Over the Horizon') 32bit
    Writing library : libebml v1.3.1 + libmatroska v1.4.2
    Video
    ID : 1
    Format : AVC
    Format/Info : Advanced Video Codec
    Format profile : High@L4
    Format settings, CABAC : Yes
    Format settings, ReFrames : 4 frames
    Codec ID : V_MPEG4/ISO/AVC
    Duration : 58mn 10s
    Bit rate : 4 753 Kbps
    Width : 1 920 pixels
    Height : 1 088 pixels
    Original height : 1 080 pixels
    Display aspect ratio : 16:9
    Original display aspect rat : 16:9
    Frame rate mode : Constant
    Frame rate : 25.000 fps
    Color space : YUV
    Chroma subsampling : 4:2:0
    Bit depth : 8 bits
    Scan type : MBAFF
    Scan order : Top Field First
    Bits/(Pixel*Frame) : 0.091
    Stream size : 1.93 GiB (87%)
    Language : German
    Default : Yes
    Forced : No
    Audio #1
    ID : 2
    Format : AC-3
    Format/Info : Audio Coding 3
    Mode extension : CM (complete main)
    Format settings, Endianness : Big
    Codec ID : A_AC3
    Duration : 58mn 10s
    Bit rate mode : Constant
    Bit rate : 192 Kbps
    Channel(s) : 2 channels
    Channel positions : Front: L R
    Sampling rate : 48.0 KHz
    Compression mode : Lossy
    Delay relative to video : -120ms
    Stream size : 79.9 MiB (4%)
    Title : MVO (Игмар)
    Language : Russian
    Default : Yes
    Forced : No
    Audio #2
    ID : 3
    Format : AC-3
    Format/Info : Audio Coding 3
    Mode extension : CM (complete main)
    Format settings, Endianness : Big
    Codec ID : A_AC3
    Duration : 58mn 10s
    Bit rate mode : Constant
    Bit rate : 192 Kbps
    Channel(s) : 2 channels
    Channel positions : Front: L R
    Sampling rate : 48.0 KHz
    Compression mode : Lossy
    Delay relative to video : -120ms
    Stream size : 79.9 MiB (4%)
    Title : VO (Павел Морозов)
    Language : Russian
    Default : No
    Forced : No
    Audio #3
    ID : 4
    Format : AC-3
    Format/Info : Audio Coding 3
    Mode extension : CM (complete main)
    Format settings, Endianness : Big
    Codec ID : A_AC3
    Duration : 58mn 10s
    Bit rate mode : Constant
    Bit rate : 192 Kbps
    Channel(s) : 2 channels
    Channel positions : Front: L R
    Sampling rate : 48.0 KHz
    Compression mode : Lossy
    Delay relative to video : -120ms
    Stream size : 79.9 MiB (4%)
    Title : GER
    Language : German
    Default : No
    Forced : No
    Text #1
    ID : 5
    Format : UTF-8
    Codec ID : S_TEXT/UTF8
    Codec ID/Info : UTF-8 Plain Text
    Title : Forced
    Language : Russian
    Default : Yes
    Forced : Yes
    Text #2
    ID : 6
    Format : UTF-8
    Codec ID : S_TEXT/UTF8
    Codec ID/Info : UTF-8 Plain Text
    Title : Full (Алексей Королёв)
    Language : Russian
    Default : No
    Forced : No

    Скриншоты

    Скачать .torrent

    Скачать торрент-файл бесплатно и на максимальной скорости!

    Как скачивать? · Что такое торрент? · Рейтинг и ограничения

    !ВНИМАНИЕ!
    Сайт не распространяет и не хранит электронные версии произведений, а занимается лишь лишь предоставлением доступа к создаваемому пользователями каталогу ссылок на торрент-файлы, которые содержат только списки хеш-сумм, убедительная просьба с жалобами обращаться напрямую к пользователю. Файлы для обмена на трекере предоставлены пользователями сайта, и администрация не несёт ответственности за их содержание. Просьба не заливать файлы, защищенные авторскими правами, а также файлы нелегального содержания!


    _________________
    [Профиль] [ЛС]
    Показать сообщения:    
    Ответить на тему

    Текущее время: Сегодня, в 20:08

    Часовой пояс: GMT + 2



    Вы не можете начинать темы
    Вы не можете отвечать на сообщения
    Вы не можете редактировать свои сообщения
    Вы не можете удалять свои сообщения
    Вы не можете голосовать в опросах
    Вы не можете прикреплять файлы к сообщениям
    Вы не можете скачивать файлы