BitTorrentTracker PerecTracker.org
BitTorrentTracker PerecTracker.org
    
Регистрация  ·  Вход
 
 · 
Забыли пароль?

  • Отряд самоубийц / Suicide Squad (Дэвид Эйр / David Ayer) [2016, США, Фантастика, фэнтези, боевик, приключения, WEB-DLRip] [Расширенная версия / Extended cut] VO (А. Матвеев) + Sub

    Ответить на тему
     
    Автор Сообщение

    rechyn

    Создавать темы 22-Ноя-2016 23:10

           

    [Цитировать]

    Отряд самоубийц / Suicide Squad
    Страна: США
    Жанр: Фантастика, Боевик, Комедия, Криминал
    Год выпуска: 2016
    Продолжительность: 02:14:30
    Перевод: Одноголосый закадровый | А. Матвеев (Doctor Joker)
    Cубтитры: Русские форсированные (отдельно)
    Оригинальная аудиодорожка: нет
    Режиссер: Дэвид Эйр / David Ayer
    В ролях: Марго Робби (Harley Quinn), Уилл Смит (Deadshot), Джаред Лето (The Joker), Джай Кортни (Captain Boomerang), Кара Делевинь (June Moone / Enchantress), Джей Эрнандес (Diablo), Юэль Киннаман (Rick Flag), Виола Дэвис (Amanda Waller), Адевале Акинойе-Агбаже (Killer Croc), Скотт Иствуд (Lieutenant GQ Edwards), Дэвид Харбор (Dexter Tolliver), Коммон (Monster T), Эзра Миллер (The Flash)
    Описание: Однажды директорше Агентства Национальной Безопасности привиделся жуткий кошмар – Супермену надоело летать над крышами небоскребов и вечно спасать мир. Когда Супермен бросил это позорное занятие, то явился в Белый Дом, выгнал оттуда к чертовой бабушке президента, сел в кресло в Овальном кабинете и заявил: «Этот домик мой немножко будет». Проснулась директорша в холодном поту и возопила – кто, кто спасет нас от съехавших с катушек супергероев? Ну конечно, только «Отряд Х» – отмороженная бригада из суперзлодеев, мотающих срок по тюрьмам да по темницам. И в самом деле – случись что, так их не жалко, а выйдут они из-под контроля, так у каждого на этот случай вживленная бомба имеется. И только этот бравый отряд успели собрать, как тут же во мрачном подземелье обнаружился древний злобный бог, решивший без шума и пыли весь мир к своим грязным лапам прибрать.
    Сэмпл
    Качество видео: WEB-DLRip
    Формат видео: AVI
    Видео: 720x304 (2.37:1), 23.976 fps, XviD MPEG-4 ~1929 kbps avg, 0.37 bit/pixel
    Аудио: 48 kHz, AC3 Dolby Digital, 6 ch, ~384.00 kbps avg

    MediaInfo

    Общее
    Полное имя : D:\Suicide.Squad.EXTENDED.AVO.2016.WEB-DLRip.2.18Gb.MegaPeer\Suicide.Squad.EXTENDED.AVO.2016.WEB-DLRip.2.18Gb.MegaPeer.avi
    Формат : AVI
    Формат/Информация : Audio Video Interleave
    Профиль формата : OpenDML
    Настройки формата : rec
    Размер файла : 2,18 Гбайт
    Продолжительность : 2 ч. 14 м.
    Общий поток : 2320 Кбит/сек
    Программа кодирования : AVI-Mux GUI 1.17.8.3, Feb 16 201019:42:50
    Видео
    Идентификатор : 0
    Формат : MPEG-4 Visual
    Профиль формата : Advanced Simple@L5
    Параметр BVOP формата : 2
    Параметр QPel формата : Нет
    Параметр GMC формата : Без точки перехода
    Параметр матрицы формата : Выборочная
    Идентификатор кодека : XVID
    Идентификатор кодека/Подсказка : XviD
    Продолжительность : 2 ч. 14 м.
    Битрейт : 1931 Кбит/сек
    Ширина : 720 пикселей
    Высота : 304 пикселя
    Соотношение сторон : 2,35:1
    Частота кадров : 23,976 (24000/1001) кадра/сек
    Цветовое пространство : YUV
    Субдискретизация насыщенности : 4:2:0
    Битовая глубина : 8 бит
    Тип развёртки : Прогрессивная
    Метод сжатия : С потерями
    Бит/(Пиксели*Кадры) : 0.368
    Размер потока : 1,81 Гбайт (83%)
    Библиотека кодирования : XviD 73
    Аудио
    Идентификатор : 1
    Формат : AC-3
    Формат/Информация : Audio Coding 3
    Расширение режима : CM (complete main)
    Параметр Endianness формата : Big
    Идентификатор кодека : 2000
    Продолжительность : 2 ч. 14 м.
    Вид битрейта : Постоянный
    Битрейт : 384 Кбит/сек
    Каналы : 6 каналов
    Расположение каналов : Front: L C R, Side: L R, LFE
    Частота : 48,0 КГц
    Частота кадров : 31,250 кадров/сек (1536 spf)
    Метод сжатия : С потерями
    Размер потока : 369 Мбайт (17%)
    Выравнивание : Соединение по промежуткам
    Продолжительность промежутка : 64 мс. (1,53 видеокадра)
    Время предзагрузки промежутка : 192 мс.
    Заголовок : А. Матвеев

    Скриншоты

    Скачать .torrent

    Скачать торрент-файл бесплатно и на максимальной скорости!

    Как скачивать? · Что такое торрент? · Рейтинг и ограничения

    !ВНИМАНИЕ!
    Сайт не распространяет и не хранит электронные версии произведений, а занимается лишь лишь предоставлением доступа к создаваемому пользователями каталогу ссылок на торрент-файлы, которые содержат только списки хеш-сумм, убедительная просьба с жалобами обращаться напрямую к пользователю. Файлы для обмена на трекере предоставлены пользователями сайта, и администрация не несёт ответственности за их содержание. Просьба не заливать файлы, защищенные авторскими правами, а также файлы нелегального содержания!


    _________________
    [Профиль] [ЛС]
    Показать сообщения:    
    Ответить на тему

    Текущее время: Сегодня, в 18:24

    Часовой пояс: GMT + 2



    Вы не можете начинать темы
    Вы не можете отвечать на сообщения
    Вы не можете редактировать свои сообщения
    Вы не можете удалять свои сообщения
    Вы не можете голосовать в опросах
    Вы не можете прикреплять файлы к сообщениям
    Вы не можете скачивать файлы