BitTorrentTracker PerecTracker.org
BitTorrentTracker PerecTracker.org
    
Регистрация  ·  Вход
 
 · 
Забыли пароль?

  • Обручённые обречённые / Committed (Стелана Клирис / Stelana Kliris) [2014, Кипр, мелодрама, комедия, HDTVRip] Dub (ND Play)

    Ответить на тему
     
    Автор Сообщение

    Light

    Создавать темы 22-Ноя-2016 19:00

           

    [Цитировать]

    Обручённые обречённые / Committed
    «A story about boy meets bride»
    -Страна: Кипр
    Студия: AMP Filmworks
    Жанр: мелодрама, комедия
    Год выпуска: 2014
    Продолжительность: 01:25:22
    Перевод: Профессиональный (дублированный, ND Play)
    Канал:
    Cубтитры: нет
    Оригинальная аудиодорожка: нет
    Режиссер: Стелана Клирис / Stelana Kliris
    В ролях: Мелиа Крейлинг, Орестес Софоклеус, Эрато Аристотелус, Керри Константину, Андреас Иоанну, Спирос Клири, Иоаннис Клирис, М.О., Мариус Матеу, Эфтихия Неофиту
    Описание: Романтическая комедия в стиле роуд-муви, действие которой разворачивается на красивейшем средиземноморском острове. Джордж пытается скрыться от своей девушки и встречает Еву, только что сбежавшую из-под венца. Вместе они отправляются в невероятное путешествие, где переосмыслят свои взгляды на отношения, обязательства и любовь.

    Тип релиза: HDTVRip [Neon_project]
    Контейнер: AVI
    Видео: 720x320 (2.25:1), 25 fps, XviD build 50 ~1999 kbps avg, 0.35 bit/pixel
    Аудио: 48 kHz, AC3 Dolby Digital, 6 ch, ~448.00 kbps avg

    возраст: зрителям, достигшим 16 лет

    MediaInfo

    ОбщееПолное имя : \Committed.2014.HDTVRip.aviФормат : AVIФормат/Информация : Audio Video InterleaveРазмер файла : 1,47 ГбайтПродолжительность : 1 ч. 25 м.Общий поток : 2458 Кбит/секНазвание фильма : Обручённые обречённые / CommittedРежиссёр : Стелана Клирис / Stelana KlirisЖанр : мелодрама, комедияПрограмма кодирования : VirtualDubMod 1.5.10.2 (build 2540/release)Формат оригинала/Имя : фильмПримечание : Neon_project
    ВидеоИдентификатор : 0Формат : MPEG-4 VisualПрофиль формата : Advanced Simple@L5Параметр BVOP формата : 1Параметр QPel формата : НетПараметр GMC формата : Без точки переходаПараметр матрицы формата : ВыборочнаяИдентификатор кодека : XVIDИдентификатор кодека/Подсказка : XviDПродолжительность : 1 ч. 25 м.Битрейт : 2000 Кбит/секШирина : 720 пикселейВысота : 320 пикселейСоотношение сторон : 2,25:1Частота кадров : 25,000 кадров/секЦветовое пространство : YUVСубдискретизация насыщенности : 4:2:0Битовая глубина : 8 битТип развёртки : ПрогрессивнаяМетод сжатия : С потерямиБит/(Пиксели*Кадры) : 0.347Размер потока : 1,19 Гбайт (81%)Библиотека кодирования : XviD 1.2.1 (UTC 2008-12-04)
    АудиоИдентификатор : 1Формат : AC-3Формат/Информация : Audio Coding 3Расширение режима : CM (complete main)Параметр Endianness формата : BigИдентификатор кодека : 2000Продолжительность : 1 ч. 25 м.Вид битрейта : ПостоянныйБитрейт : 448 Кбит/секКаналы : 6 каналовРасположение каналов : Front: L C R, Side: L R, LFEЧастота : 48,0 КГцБитовая глубина : 16 битМетод сжатия : С потерямиРазмер потока : 274 Мбайт (18%)Выравнивание : Разделение по промежуткамПродолжительность промежутка : 40 мс. (1,00 видеокадр)Время предзагрузки промежутка : 500 мс.

    Скриншот c названием фильма

    Скриншоты


    Скачать .torrent

    Скачать торрент-файл бесплатно и на максимальной скорости!

    Как скачивать? · Что такое торрент? · Рейтинг и ограничения

    !ВНИМАНИЕ!
    Сайт не распространяет и не хранит электронные версии произведений, а занимается лишь лишь предоставлением доступа к создаваемому пользователями каталогу ссылок на торрент-файлы, которые содержат только списки хеш-сумм, убедительная просьба с жалобами обращаться напрямую к пользователю. Файлы для обмена на трекере предоставлены пользователями сайта, и администрация не несёт ответственности за их содержание. Просьба не заливать файлы, защищенные авторскими правами, а также файлы нелегального содержания!


    _________________
    [Профиль] [ЛС]
    Показать сообщения:    
    Ответить на тему

    Текущее время: Сегодня, в 20:05

    Часовой пояс: GMT + 2



    Вы не можете начинать темы
    Вы не можете отвечать на сообщения
    Вы не можете редактировать свои сообщения
    Вы не можете удалять свои сообщения
    Вы не можете голосовать в опросах
    Вы не можете прикреплять файлы к сообщениям
    Вы не можете скачивать файлы