BitTorrentTracker PerecTracker.org
BitTorrentTracker PerecTracker.org
    
Регистрация  ·  Вход
 
 · 
Забыли пароль?

  • Срочная доставка / Premium Rush (Дэвид Кепп / David Koepp) [2012, США, триллер, криминал, HDTV 1080i] [Open Matte] MVO (Видеосервис)

    Ответить на тему
     
    Автор Сообщение

    Light

    Создавать темы 22-Ноя-2016 19:00

           

    [Цитировать]

    Срочная доставка / Premium Rush«Ride Like Hell»
    Страна: США
    Жанр: триллер, криминал
    Год выпуска: 2012
    Продолжительность: 01:27:14
    Перевод: Профессиональный (многоголосый закадровый) Видеосервис
    Cубтитры: нет
    Оригинальная аудиодорожка: нет
    -
    Режиссер: Дэвид Кепп / David Koepp
    В ролях: Джозеф Гордон-Левитт, Майкл Шеннон, Даня Рамирес, Джейми Чанг, Уоли Паркс, Аасиф Мандви, Генри О, Энтони Чисхолм, Аарон Твейт, Крис Плэйс
    -
    Описание: В Нью-Йорке работает посыльным Уайли (Джозеф Гордон-Левитт). Он, как опытный велосипедист, ловко передвигается по городским улицам и доставляет конверты, письма и посылки из пункта А в пункт Б. Он проскальзывает между мчащимися с огромной скоростью машинами и между спешащими людьми, и, порой, с риском для жизни выполняет свою работу. Но однажды Уайли получает заказ о срочной доставке одного конверта. Это задание превращается в безумную гонку со смертью по улицам Манхэттена, в добавок ко всему его начинает преследовать коррумпированный полицейский Бобби Манди (Майкл Шэннон), которого тоже интересует этот конверт.

    >>> Собственная запись со спутника Eutelsat 36A/36B (36°E) | TV1000 Megahit HD (эфир 19.11.2016г.)
    Тип релиза: HDTV 1080i
    Контейнер: MKV
    Видео: MPEG-4 AVC / PAL 16:9 / 1920x1080 (1,78:1) / 9119 kbps / 25,000 fps / 0.088 bit/pixel / High@L4
    Аудио: Russian / Dolby Digital Audio / 5.1 Ch / 48 kHz / 384 kbps / 16 bit | MVO | Видеосервис
    Навигация по главам: есть

    MediaInfo

    Общее
    Уникальный идентификатор                 : 240924504900470260414080179677328053151 (0xB5405F30694DE869A105FD27E590139F)
    Полное имя                               : N:\HDTV\Premium Rush 2012 1080i HDTV MPEG-4 DD5.1.mkv
    Формат                                   : Matroska
    Версия формата                           : Version 4 / Version 2
    Размер файла                             : 5,79 Гбайт
    Продолжительность                        : 1 ч. 27 м.
    Общий поток                              : 9510 Кбит/сек
    Название фильма                          : Release for RuTracker © flaSI-I
    Дата кодирования                         : UTC 2016-11-19 17:44:32
    Программа кодирования                    : mkvmerge v9.5.0 ('Quiet Fire') 64bit
    Библиотека кодирования                   : libebml v1.3.4 + libmatroska v1.4.5
    Видео
    Идентификатор                            : 1
    Формат                                   : AVC
    Формат/Информация                        : Advanced Video Codec
    Профиль формата                          : High@L4
    Параметр CABAC формата                   : Да
    Параметр ReFrames формата                : 4 кадра
    Идентификатор кодека                     : V_MPEG4/ISO/AVC
    Продолжительность                        : 1 ч. 27 м.
    Битрейт                                  : 9119 Кбит/сек
    Ширина                                   : 1920 пикселей
    Высота                                   : 1080 пикселей
    Соотношение сторон                       : 16:9
    Режим частоты кадров                     : Переменный
    Частота кадров                           : 50,000 кадров/сек
    Частота кадров в оригинале               : 25,000 кадров/сек
    Стандарт вещания                         : Component
    Цветовое пространство                    : YUV
    Субдискретизация насыщенности            : 4:2:0
    Битовая глубина                          : 8 бит
    Тип развёртки                            : Чересстрочная
    Метод сохранения типа развёртки          : Раздельные поля
    Порядок развёртки                        : Верхнее поле первое
    Бит/(Пиксели*Кадры)                      : 0.088
    Размер потока                            : 5,56 Гбайт (96%)
    Язык                                     : English
    Default                                  : Да
    Forced                                   : Нет
    Цветовой диапазон                        : Limited
    Основные цвета                           : BT.709
    Характеристики трансфера                 : BT.709
    Коэффициенты матрицы                     : BT.709
    Аудио
    Идентификатор                            : 2
    Формат                                   : AC-3
    Формат/Информация                        : Audio Coding 3
    Расширение режима                        : CM (complete main)
    Параметр Endianness формата              : Big
    Идентификатор кодека                     : A_AC3
    Продолжительность                        : 1 ч. 27 м.
    Вид битрейта                             : Постоянный
    Битрейт                                  : 384 Кбит/сек
    Каналы                                   : 6 каналов
    Расположение каналов                     : Front: L C R, Side: L R, LFE
    Частота                                  : 48,0 КГц
    Частота кадров                           : 31,250 кадров/сек (1536 spf)
    Битовая глубина                          : 16 бит
    Метод сжатия                             : С потерями
    Размер потока                            : 240 Мбайт (4%)
    Заголовок                                : MVO | Видеосервис
    Язык                                     : Russian
    Default                                  : Да
    Forced                                   : Нет
    Меню
    00:00:00.000                             : en:Chapter 1
    00:05:43.301                             : en:Chapter 2
    00:10:33.674                             : en:Chapter 3
    00:19:39.845                             : en:Chapter 4
    00:22:41.401                             : en:Chapter 5
    00:28:54.107                             : en:Chapter 6
    00:33:01.562                             : en:Chapter 7
    00:37:37.171                             : en:Chapter 8
    00:44:25.412                             : en:Chapter 9
    00:50:52.758                             : en:Chapter 10
    00:55:17.772                             : en:Chapter 11
    00:58:40.600                             : en:Chapter 12
    01:02:10.935                             : en:Chapter 13
    01:09:15.234                             : en:Chapter 14
    01:15:52.756                             : en:Chapter 15
    01:22:29.861                             : en:Chapter 16

    HDTV vs. Blu-ray

    HDTV @ Blu-Ray

    Скриншоты

    -

    Скачать .torrent

    Скачать торрент-файл бесплатно и на максимальной скорости!

    Как скачивать? · Что такое торрент? · Рейтинг и ограничения

    !ВНИМАНИЕ!
    Сайт не распространяет и не хранит электронные версии произведений, а занимается лишь лишь предоставлением доступа к создаваемому пользователями каталогу ссылок на торрент-файлы, которые содержат только списки хеш-сумм, убедительная просьба с жалобами обращаться напрямую к пользователю. Файлы для обмена на трекере предоставлены пользователями сайта, и администрация не несёт ответственности за их содержание. Просьба не заливать файлы, защищенные авторскими правами, а также файлы нелегального содержания!


    _________________
    [Профиль] [ЛС]
    Показать сообщения:    
    Ответить на тему

    Текущее время: Сегодня, в 00:24

    Часовой пояс: GMT + 2



    Вы не можете начинать темы
    Вы не можете отвечать на сообщения
    Вы не можете редактировать свои сообщения
    Вы не можете удалять свои сообщения
    Вы не можете голосовать в опросах
    Вы не можете прикреплять файлы к сообщениям
    Вы не можете скачивать файлы