BitTorrentTracker PerecTracker.org
BitTorrentTracker PerecTracker.org
    
Регистрация  ·  Вход
 
 · 
Забыли пароль?

  • Джейсон Борн / Jason Bourne (Пол Гринграсс / Paul Greengrass) [2016, Великобритания, Китай, США, боевик, триллер, BDRip 1080p] Dub (Лицензия, Blu-ray CEE) + Sub Rus, Eng + Original Eng

    Ответить на тему
     
    Автор Сообщение

    Light

    Создавать темы 22-Ноя-2016 19:00

           

    [Цитировать]

    --Джейсон Борн / Jason Bourne--«Вы знаете его имя»
    -Страна: Великобритания, Китай, США
    Студия: Captivate Entertainment, Double Negative, Universal Pictures
    Жанр: боевик, триллер
    Год выпуска: 2016
    Продолжительность: 02:03:11
    Перевод: Профессиональный (дублированный) Лицензия, Blu-ray CEE
    Cубтитры: Русские (форсированные, полные), Украинские (форсированные, полные), Английские (полные, SDH, SDH - COLORED)
    Оригинальная аудиодорожка: английский-Режиссер: Пол Гринграсс / Paul Greengrass-В ролях: Мэтт Дэймон, Алисия Викандер, Томми Ли Джонс, Венсан Кассель, Джулия Стайлз, Риз Ахмед, Ато Эссонда, Скотт Шеперд, Билл Кэмп, Винцец Кифер
    Описание: Мир на грани катастрофы, а значит пришло время ему вернуться. Неаполь, Мюнхен, Нью-Йорк — его имя знают повсюду. Элитный суперагент, лучший из лучших, даже в Лас-Вегасе игра пойдет по его правилам. Он — Джейсон Борн.-| Сэмпл | | |
    -Тип релиза: BDRip 1080p (Источник)
    Контейнер: MKV
    Видео: 1920x804 at 23.976 fps, x264@L4.1, ~14.1 Mbps avg
    Аудио: Русский DTS, 6ch (L, C, R, Ls, Rs +LFE), 768 кбит/с
    Аудио 2: Английский AC3, 6ch (L, C, R, Ls, Rs +LFE), 1536 кбит/с
    Формат субтитров: softsub (SRT)

    MediaInfo

    General
    Уникальный идентификатор : 231322421586287562267955050889769217160 (0xAE0713EE3F630EB9A638A58D82A96C88)
    Полное имя : D:\MOVIES\Jason.Bourne.2016.1080p.BluRay.DTS.Rus.Eng.HDCLUB.mkv
    Формат : Matroska
    Версия формата : Version 2
    Размер файла : 14.4 GiB
    Продолжительность : 2h 3mn
    Общий поток : 16.7 Mbps
    Название фильма : Jason Bourne (2016)
    Дата кодирования : UTC 2016-11-17 15:56:09
    Программа кодирования : mkvmerge v3.4.0 ('Rapunzel') built on May 15 2010 09:38:20
    Библиотека кодирования : libebml v0.8.0 + libmatroska v0.9.0
    Video
    Идентификатор : 1
    Формат : AVC
    Формат/Информация : Advanced Video Codec
    Профиль формата : High@L4.1
    Параметр CABAC формата : Yes
    Параметр ReFrames формата : 5 frames
    Идентификатор кодека : V_MPEG4/ISO/AVC
    Продолжительность : 2h 3mn
    Битрейт : 14.1 Mbps
    Ширина : 1 920 pixels
    Высота : 804 pixels
    Соотношение сторон : 2.40:1
    Режим частоты кадров : Constant
    Частота кадров : 23.976 fps
    Цветовое пространство : YUV
    Субдискретизация насыщенности : 4:2:0
    Битовая глубина : 8 bits
    Тип развёртки : Progressive
    Бит/(Пиксели*Кадры) : 0.380
    Размер потока : 12.1 GiB (84%)
    Заголовок : Jason Bourne (2016)
    Библиотека кодирования : x264 core 148 r2721 72d53ab
    Настройки программы : cabac=1 / ref=5 / deblock=1:-3:-3 / analyse=0x3:0x133 / me=umh / subme=11 / psy=1 / psy_rd=1.00:0.00 / mixed_ref=1 / me_range=48 / chroma_me=1 / trellis=2 / 8x8dct=1 / cqm=0 / deadzone=21,11 / fast_pskip=0 / chroma_qp_offset=-2 / threads=24 / lookahead_threads=4 / sliced_threads=0 / nr=0 / decimate=1 / interlaced=0 / bluray_compat=0 / constrained_intra=0 / bframes=8 / b_pyramid=2 / b_adapt=2 / b_bias=0 / direct=1 / weightb=1 / open_gop=0 / weightp=2 / keyint=240 / keyint_min=23 / scenecut=40 / intra_refresh=0 / rc_lookahead=60 / rc=crf / mbtree=0 / crf=18.1 / qcomp=0.60 / qpmin=0 / qpmax=69 / qpstep=4 / vbv_maxrate=50000 / vbv_bufsize=62500 / crf_max=0.0 / nal_hrd=none / filler=0 / ip_ratio=1.35 / pb_ratio=1.25 / aq=3:0.80
    Язык : English
    Default : Yes
    Forced : No
    Audio #1
    Идентификатор : 2
    Формат : DTS
    Формат/Информация : Digital Theater Systems
    Режим : 16
    Параметр Endianness формата : Big
    Идентификатор кодека : A_DTS
    Продолжительность : 2h 3mn
    Вид битрейта : Constant
    Битрейт : 768 Kbps
    Каналы : 6 channels
    Расположение каналов : Front: L C R, Side: L R, LFE
    Частота : 48.0 KHz
    Битовая глубина : 24 bits
    Метод сжатия : Lossy
    Размер потока : 677 MiB (5%)
    Заголовок : DTS 5.1 @ 768 kbps - DUB, Blu-ray CEE
    Язык : Russian
    Default : Yes
    Forced : No
    Audio #2
    Идентификатор : 3
    Формат : DTS
    Формат/Информация : Digital Theater Systems
    Режим : 16
    Параметр Endianness формата : Big
    Идентификатор кодека : A_DTS
    Продолжительность : 2h 3mn
    Вид битрейта : Constant
    Битрейт : 1 509 Kbps
    Каналы : 6 channels
    Расположение каналов : Front: L C R, Side: L R, LFE
    Частота : 48.0 KHz
    Битовая глубина : 24 bits
    Метод сжатия : Lossy
    Размер потока : 1.30 GiB (9%)
    Заголовок : DTS 5.1 @ 1536 kbps
    Язык : English
    Default : No
    Forced : No
    Text #1
    Идентификатор : 4
    Формат : UTF-8
    Идентификатор кодека : S_TEXT/UTF8
    Идентификатор кодека/Информация : UTF-8 Plain Text
    Заголовок : Forced, Blu-ray CEE
    Язык : Russian
    Default : Yes
    Forced : No
    Text #2
    Идентификатор : 5
    Формат : UTF-8
    Идентификатор кодека : S_TEXT/UTF8
    Идентификатор кодека/Информация : UTF-8 Plain Text
    Заголовок : Blu-ray CEE
    Язык : Russian
    Default : No
    Forced : No
    Text #3
    Идентификатор : 6
    Формат : UTF-8
    Идентификатор кодека : S_TEXT/UTF8
    Идентификатор кодека/Информация : UTF-8 Plain Text
    Заголовок : Forced, Blu-ray CEE
    Язык : Ukrainian
    Default : No
    Forced : No
    Text #4
    Идентификатор : 7
    Формат : UTF-8
    Идентификатор кодека : S_TEXT/UTF8
    Идентификатор кодека/Информация : UTF-8 Plain Text
    Заголовок : Blu-ray CEE
    Язык : Ukrainian
    Default : No
    Forced : No
    Text #5
    Идентификатор : 8
    Формат : UTF-8
    Идентификатор кодека : S_TEXT/UTF8
    Идентификатор кодека/Информация : UTF-8 Plain Text
    Заголовок : Blu-ray CEE
    Язык : English
    Default : No
    Forced : No
    Text #6
    Идентификатор : 9
    Формат : UTF-8
    Идентификатор кодека : S_TEXT/UTF8
    Идентификатор кодека/Информация : UTF-8 Plain Text
    Заголовок : SDH
    Язык : English
    Default : No
    Forced : No
    Text #7
    Идентификатор : 10
    Формат : UTF-8
    Идентификатор кодека : S_TEXT/UTF8
    Идентификатор кодека/Информация : UTF-8 Plain Text
    Заголовок : SDH-COLORED
    Язык : English
    Default : No
    Forced : No
    Menu
    00:00:00.000 : en:Chapter 1
    00:04:04.661 : en:Chapter 2
    00:08:21.543 : en:Chapter 3
    00:13:32.687 : en:Chapter 4
    00:18:28.316 : en:Chapter 5
    00:24:07.237 : en:Chapter 6
    00:29:21.259 : en:Chapter 7
    00:36:15.548 : en:Chapter 8
    00:42:20.663 : en:Chapter 9
    00:48:22.441 : en:Chapter 10
    00:55:12.184 : en:Chapter 11
    01:01:09.666 : en:Chapter 12
    01:08:32.483 : en:Chapter 13
    01:16:23.329 : en:Chapter 14
    01:24:45.330 : en:Chapter 15
    01:29:06.550 : en:Chapter 16
    01:37:52.909 : en:Chapter 17
    01:44:26.343 : en:Chapter 18
    01:48:03.727 : en:Chapter 19
    01:54:01.209 : en:Chapter 20

    x264log

    x264 [info]: frame I:1052 Avg QP:14.92 size:191097
    x264 [info]: frame P:54470 Avg QP:15.88 size: 98719
    x264 [info]: frame B:121699 Avg QP:18.36 size: 63510
    x264 [info]: consecutive B-frames: 8.9% 9.0% 14.5% 18.1% 15.6% 26.6% 4.4% 1.2% 1.6%

    Скриншоты

    Скачать .torrent

    Скачать торрент-файл бесплатно и на максимальной скорости!

    Как скачивать? · Что такое торрент? · Рейтинг и ограничения

    !ВНИМАНИЕ!
    Сайт не распространяет и не хранит электронные версии произведений, а занимается лишь лишь предоставлением доступа к создаваемому пользователями каталогу ссылок на торрент-файлы, которые содержат только списки хеш-сумм, убедительная просьба с жалобами обращаться напрямую к пользователю. Файлы для обмена на трекере предоставлены пользователями сайта, и администрация не несёт ответственности за их содержание. Просьба не заливать файлы, защищенные авторскими правами, а также файлы нелегального содержания!


    _________________
    [Профиль] [ЛС]
    Показать сообщения:    
    Ответить на тему

    Текущее время: Сегодня, в 00:23

    Часовой пояс: GMT + 2



    Вы не можете начинать темы
    Вы не можете отвечать на сообщения
    Вы не можете редактировать свои сообщения
    Вы не можете удалять свои сообщения
    Вы не можете голосовать в опросах
    Вы не можете прикреплять файлы к сообщениям
    Вы не можете скачивать файлы