BitTorrentTracker PerecTracker.org
BitTorrentTracker PerecTracker.org
    
Регистрация  ·  Вход
 
 · 
Забыли пароль?

  • Пит и его дракон / Pete\'s Dragon (Дэвид Лоури / David Lowery) [2016, США, фэнтези, приключения, семейный, BDRip 1080p] Dub + Sub Rus, Eng + Original Eng

    Ответить на тему
     
    Автор Сообщение

    Light

    Создавать темы 22-Ноя-2016 19:00

           

    [Цитировать]

    Пит и его дракон / Pete's Dragon
    Страна: США
    Студия: Walt Disney Productions
    Жанр: фэнтези, приключения, семейный
    Год выпуска: 2016
    Продолжительность: 01:42:45
    Перевод: Профессиональный (дублированный) Blu-ray EUR
    Cубтитры: русские (форсированные, полные, комментарии), английские (полные, комментарии)
    Оригинальная аудиодорожка: английский
    Режиссер: Дэвид Лоури / David Lowery
    В ролях: Брайс Даллас Ховард, Роберт Редфорд, Оакс Фигли, Уна Лоуренс, Уэс Бентли, Карл Урбан, Исайя Уитлок мл., Маркус Хендерсон, Аарон Джексон, Филип Грив
    Описание: В течение многих лет Мистер Мичем забавлял местных детишек сказочными историями о свирепом драконе, обитающим на севере, глубоко в лесах. Для его дочери Грейс все эти истории казались ничем иным как выдумкой, ровно до тех пор, пока она не встретила в лесу маленького мальчика по имени Пит. Пит уже долгое время живет в диком лесу, у него нет ни дома, ни семьи, зато есть замечательный друг — огромный зеленый дракон Эллиот. Грейс решает разгадать историю юного Пита, узнать всю правду о его семье и загадочном драконе, о котором ходит так много слухов и легенд.- -Сэмпл: https://yadi.sk/i/4wEJwT9yz4CWg
    Тип релиза: BDRip 1080p [DON]
    Контейнер: MKV
    Видео: h.264, 1920x800, 23.976 fps, 10400 kbps
    Аудио #1: Russian: AC3 5.1, 48 kHz, 640 kbps avg |Дубляж, Blu-ray EUR|
    Аудио #2: English: DTS 5.1, 48 kHz/24-bit, 1536 kbps avg |Оригинал|
    Аудио #3: English: AC3 2.0, 48 kHz, 192 kbps avg |Commentary with Director David Lowery, Co-Writer Toby Halbrooks, and Actors Oakes Fegley and Oona Laurence|
    Формат субтитров: softsub (SRT)

    MediaInfo

    Complete name : E:\Pete's Dragon 2016 1080p BluRay Rus Eng HDCLUB-DON.mkv
    Format : Matroska
    Format version : Version 4 / Version 2
    File size : 9.16 GiB
    Duration : 1h 42mn
    Overall bit rate : 12.8 Mbps
    Movie name : Pete's Dragon [2016] 720p BluRay - IDE
    Encoded date : UTC 2016-11-20 07:54:12
    Writing application : mkvmerge v9.5.0 ('Quiet Fire') 64bit
    Writing library : libebml v1.3.4 + libmatroska v1.4.5
    Cover : Yes
    Attachments : cover.jpg
    Video
    ID : 1
    Format : AVC
    Format/Info : Advanced Video Codec
    Format profile : High@L4.1
    Format settings, CABAC : Yes
    Format settings, ReFrames : 5 frames
    Codec ID : V_MPEG4/ISO/AVC
    Duration : 1h 42mn
    Bit rate : 10.4 Mbps
    Width : 1 920 pixels
    Height : 800 pixels
    Display aspect ratio : 2.40:1
    Frame rate mode : Constant
    Frame rate : 23.976 (24000/1001) fps
    Color space : YUV
    Chroma subsampling : 4:2:0
    Bit depth : 8 bits
    Scan type : Progressive
    Bits/(Pixel*Frame) : 0.283
    Stream size : 7.48 GiB (82%)
    Writing library : x264 core 148 r2721+55 e19946b t_mod_Custom [8-bit@all X86_64]
    Encoding settings : cabac=1 / ref=5 / deblock=1:-3:-3 / analyse=0x3:0x133 / me=umh / subme=10 / psy=1 / fade_compensate=0.00 / psy_rd=1.00:0.00 / mixed_ref=1 / me_range=32 / chroma_me=1 / trellis=2 / 8x8dct=1 / cqm=0 / deadzone=21,11 / fast_pskip=0 / chroma_qp_offset=-2 / threads=8 / lookahead_threads=1 / sliced_threads=0 / nr=0 / decimate=0 / interlaced=0 / bluray_compat=0 / constrained_intra=0 / fgo=0 / bframes=9 / b_pyramid=2 / b_adapt=2 / b_bias=0 / direct=3 / weightb=1 / open_gop=0 / weightp=2 / keyint=250 / keyint_min=23 / scenecut=40 / intra_refresh=0 / rc_lookahead=150 / rc=crf / mbtree=0 / crf=15.9000 / qcomp=0.60 / qpmin=0:0:0 / qpmax=69:69:69 / qpstep=4 / vbv_maxrate=62500 / vbv_bufsize=78125 / crf_max=0.0 / nal_hrd=none / filler=0 / ip_ratio=1.30 / pb_ratio=1.20 / aq=3:0.80 / aq-sensitivity=10.00 / aq-factor=1.00:1.00:1.00 / aq2=0 / aq3=0
    Language : English
    Default : Yes
    Forced : No
    Color range : Limited
    Matrix coefficients : BT.709
    Audio #1
    ID : 2
    Format : AC-3
    Format/Info : Audio Coding 3
    Mode extension : CM (complete main)
    Format settings, Endianness : Big
    Codec ID : A_AC3
    Duration : 1h 42mn
    Bit rate mode : Constant
    Bit rate : 640 Kbps
    Channel(s) : 6 channels
    Channel positions : Front: L C R, Side: L R, LFE
    Sampling rate : 48.0 KHz
    Frame rate : 31.250 fps (1536 spf)
    Compression mode : Lossy
    Stream size : 470 MiB (5%)
    Language : Russian
    Default : Yes
    Forced : No
    Audio #2
    ID : 3
    Format : DTS
    Format/Info : Digital Theater Systems
    Mode : 16
    Format settings, Endianness : Big
    Codec ID : A_DTS
    Duration : 1h 42mn
    Bit rate mode : Constant
    Bit rate : 1 509 Kbps
    Channel(s) : 6 channels
    Channel positions : Front: L C R, Side: L R, LFE
    Sampling rate : 48.0 KHz
    Frame rate : 93.750 fps (512 spf)
    Bit depth : 24 bits
    Compression mode : Lossy
    Stream size : 1.08 GiB (12%)
    Language : English
    Default : No
    Forced : No
    Audio #3
    ID : 4
    Format : AC-3
    Format/Info : Audio Coding 3
    Mode extension : CM (complete main)
    Format settings, Endianness : Big
    Codec ID : A_AC3
    Duration : 1h 42mn
    Bit rate mode : Constant
    Bit rate : 192 Kbps
    Channel(s) : 2 channels
    Channel positions : Front: L R
    Sampling rate : 48.0 KHz
    Frame rate : 31.250 fps (1536 spf)
    Compression mode : Lossy
    Stream size : 141 MiB (2%)
    Title : Commentary with Director David Lowery, Co-Writer Toby Halbrooks, and Actors Oakes Fegley and Oona Laurence
    Language : English
    Default : No
    Forced : No
    Text #1
    ID : 5
    Format : UTF-8
    Codec ID : S_TEXT/UTF8
    Codec ID/Info : UTF-8 Plain Text
    Duration : 1h 22mn
    Bit rate : 0 bps
    Count of elements : 5
    Stream size : 213 Bytes (0%)
    Title : forced
    Language : Russian
    Default : Yes
    Forced : No
    Text #2
    ID : 6
    Format : UTF-8
    Codec ID : S_TEXT/UTF8
    Codec ID/Info : UTF-8 Plain Text
    Duration : 1h 35mn
    Bit rate : 48 bps
    Count of elements : 864
    Stream size : 34.4 KiB (0%)
    Language : Russian
    Default : No
    Forced : No
    Text #3
    ID : 7
    Format : UTF-8
    Codec ID : S_TEXT/UTF8
    Codec ID/Info : UTF-8 Plain Text
    Duration : 1h 37mn
    Bit rate : 184 bps
    Count of elements : 2152
    Stream size : 132 KiB (0%)
    Title : Commentary with Director David Lowery, Co-Writer Toby Halbrooks, and Actors Oakes Fegley and Oona Laurence
    Language : Russian
    Default : No
    Forced : No
    Text #4
    ID : 8
    Format : UTF-8
    Codec ID : S_TEXT/UTF8
    Codec ID/Info : UTF-8 Plain Text
    Duration : 1h 39mn
    Bit rate : 37 bps
    Count of elements : 1030
    Stream size : 27.2 KiB (0%)
    Language : English
    Default : No
    Forced : No
    Text #5
    ID : 9
    Format : UTF-8
    Codec ID : S_TEXT/UTF8
    Codec ID/Info : UTF-8 Plain Text
    Duration : 1h 41mn
    Bit rate : 42 bps
    Count of elements : 1231
    Stream size : 31.4 KiB (0%)
    Title : SDH
    Language : English
    Default : No
    Forced : No
    Text #6
    ID : 10
    Format : UTF-8
    Codec ID : S_TEXT/UTF8
    Codec ID/Info : UTF-8 Plain Text
    Duration : 1h 39mn
    Bit rate : 154 bps
    Count of elements : 2256
    Stream size : 113 KiB (0%)
    Title : Commentary
    Language : English
    Default : No
    Forced : No
    Text #7
    ID : 11
    Format : UTF-8
    Codec ID : S_TEXT/UTF8
    Codec ID/Info : UTF-8 Plain Text
    Duration : 1h 39mn
    Bit rate : 170 bps
    Count of elements : 2278
    Stream size : 124 KiB (0%)
    Title : Commentary / SDH
    Language : English
    Default : No
    Forced : No
    Menu
    00:00:00.000 : en:Family Vacation
    00:06:03.989 : en:The Tale of Dragons
    00:09:46.669 : en:Playtime with Elliot
    00:15:20.128 : en:Forest Ranger Grace
    00:21:28.496 : en:A New Friend
    00:30:23.447 : en:Hospital Escape
    00:36:57.966 : en:Finding Elliot
    00:44:03.057 : en:The Meacham Family
    00:52:28.062 : en:Replaced
    00:56:42.566 : en:The Truth
    01:03:13.832 : en:Capture
    01:10:07.078 : en:Escape Plan
    01:17:17.508 : en:Standoff at the Bridge
    01:26:46.034 : en:Together Again
    01:32:26.750 : en:Epilogue
    01:35:01.362 : en:Credits

    Source vs Encode




    Скриншоты

    Скачать .torrent

    Скачать торрент-файл бесплатно и на максимальной скорости!

    Как скачивать? · Что такое торрент? · Рейтинг и ограничения

    !ВНИМАНИЕ!
    Сайт не распространяет и не хранит электронные версии произведений, а занимается лишь лишь предоставлением доступа к создаваемому пользователями каталогу ссылок на торрент-файлы, которые содержат только списки хеш-сумм, убедительная просьба с жалобами обращаться напрямую к пользователю. Файлы для обмена на трекере предоставлены пользователями сайта, и администрация не несёт ответственности за их содержание. Просьба не заливать файлы, защищенные авторскими правами, а также файлы нелегального содержания!


    _________________
    [Профиль] [ЛС]
    Показать сообщения:    
    Ответить на тему

    Текущее время: Сегодня, в 14:28

    Часовой пояс: GMT + 2



    Вы не можете начинать темы
    Вы не можете отвечать на сообщения
    Вы не можете редактировать свои сообщения
    Вы не можете удалять свои сообщения
    Вы не можете голосовать в опросах
    Вы не можете прикреплять файлы к сообщениям
    Вы не можете скачивать файлы