BitTorrentTracker PerecTracker.org
BitTorrentTracker PerecTracker.org
    
Регистрация  ·  Вход
 
 · 
Забыли пароль?

  • Неоновый демон / The Neon Demon (Николас Виндинг Рефн / Nicolas Winding Refn) [2016, Франция, Дания, США, ужасы, триллер, BDRip 720p] Dub (iTunes) + 2x VO + Sub Rus, Eng + Original Eng

    Ответить на тему
     
    Автор Сообщение

    Light

    Создавать темы 22-Ноя-2016 19:00

           

    [Цитировать]

    Неоновый демон / The Neon Demon
    Страна: Франция, Дания, США
    Студия: Bold Films
    Жанр: ужасы, триллер
    Год выпуска: 2016
    Продолжительность: 01:57:42--Перевод 1: Профессиональный (дублированный) iTunes
    Перевод 2: Любительский (одноголосный закадровый) Матвеев без цензуры
    Перевод 3: Любительский (одноголосный закадровый) Матвеев с цензурой
    Cубтитры: русские, английские
    Оригинальная аудио дорожка: английский--Режиссер: Николас Виндинг Рефн / Nicolas Winding Refn--В ролях: Элль Фэннинг, Карл Глусман, Джена Мэлоун, Белла Хиткот, Эбби Ли, Десмонд Хэррингтон, Кристина Хендрикс, Киану Ривз, Чарльз Бэйкер, Джеми Клейтон--Описание: Провинциалка Джесси, мечтающая стать супермоделью, едва окончив школу, отправляется покорять Лос-Анджелес. Через тернии (одна, без денег, чужой город, дешевый мотель), но и через нужные знакомства, фотосессии, вечеринки — к звездам. И вот это сладкое слово «слава» становится былью для юной красавицы. Но за стремительный карьерный взлет придется расплатиться — конкурентки из ненависти и безумной зависти готовы на многое.--Доп. информация: Навигация по главам с Remux--Сэмпл: http://sendfile.su/1284113--Тип релиза: BDRip 720p
    Контейнер: MKV
    Видео кодек: H.264
    Аудио кодек: DTS, AC-3
    Видео: MPEG4/AVC, 1280x536, 2.40:1, 23.976 (24000/1001) FPS, 3 255 kb/s
    Аудио 1: RUS / DUB, AC-3, 5.1, 48.0 kHz, 384 kb/s | дубляж iTunes
    Аудио 2: RUS / VO, AC-3, 5.1, 48.0 kHz, 640 kb/s | Матвеев
    Аудио 3: RUS / VO, AC-3, 5.1, 48.0 kHz, 640 kb/s | Матвеев с цензурой
    Аудио 4: ENG / нет, DTS, 5.1, 48.0 kHz, 1509 kb/s | оригинал
    Формат субтитров: softsub (SRT)
    Релиз:

    MediaInfo

    x264
    x264 [info]: frame I:1030 Avg QP:12.04 size:99247
    x264 [info]: frame P:27971 Avg QP:13.93 size: 36513
    x264 [info]: frame B:140320 Avg QP:14.74 size: 13279
    Формат : Matroska
    Версия формата : Version 2
    Размер файла : 5,39 Гбайт
    Продолжительность : 1 ч. 57 м.
    Общий поток : 6559 Кбит/сек
    Дата кодирования : UTC 2016-11-20 09:47:16
    Программа кодирования : mkvmerge v7.6.0 ('Garden of Dreams') 32bit built on Feb 11 2015 00:18:47
    Библиотека кодирования : libebml v1.3.1 + libmatroska v1.4.2
    Видео
    Идентификатор : 1
    Формат : AVC
    Формат/Информация : Advanced Video Codec
    Профиль формата : High@L4.1
    Параметр CABAC формата : Да
    Параметр ReFrames формата : 9 кадров
    Идентификатор кодека : V_MPEG4/ISO/AVC
    Продолжительность : 1 ч. 57 м.
    Битрейт : 3255 Кбит/сек
    Ширина : 1280 пикселей
    Высота : 536 пикселей
    Соотношение сторон : 2,40:1
    Режим частоты кадров : Постоянный
    Частота кадров : 23,976 (24000/1001) кадра/сек
    Цветовое пространство : YUV
    Субдискретизация насыщенности : 4:2:0
    Битовая глубина : 8 бит
    Тип развёртки : Прогрессивная
    Бит/(Пиксели*Кадры) : 0.198
    Размер потока : 2,68 Гбайт (50%)
    Библиотека кодирования : x264 core 148 r2721 72d53ab
    Настройки программы : cabac=1 / ref=9 / deblock=1:-3:-3 / analyse=0x3:0x113 / me=umh / subme=10 / psy=1 / psy_rd=1.20:0.05 / mixed_ref=1 / me_range=32 / chroma_me=1 / trellis=2 / 8x8dct=1 / cqm=0 / deadzone=21,11 / fast_pskip=1 / chroma_qp_offset=-3 / threads=4 / lookahead_threads=1 / sliced_threads=0 / nr=0 / decimate=0 / interlaced=0 / bluray_compat=0 / constrained_intra=0 / bframes=16 / b_pyramid=2 / b_adapt=2 / b_bias=0 / direct=1 / weightb=1 / open_gop=0 / weightp=2 / keyint=240 / keyint_min=23 / scenecut=40 / intra_refresh=0 / rc_lookahead=60 / rc=crf / mbtree=0 / crf=16.2 / qcomp=0.67 / qpmin=0 / qpmax=69 / qpstep=4 / vbv_maxrate=62500 / vbv_bufsize=78125 / crf_max=0.0 / nal_hrd=none / filler=0 / ip_ratio=1.30 / pb_ratio=1.20 / aq=2:0.90
    Default : Да
    Forced : Нет
    Statistics Tags Issue : mkvmerge v9.5.0 ('Quiet Fire') 32bit 2016-11-20 00:48:30 / mkvmerge v7.6.0 ('Garden of Dreams') 32bit built on Feb 11 2015 00:18:47 2016-11-20 09:47:16
    FromStats_BitRate : 3383568
    FromStats_Duration : 01:57:42.097000000
    FromStats_FrameCount : 169321
    FromStats_StreamSize : 2986886003
    Аудио #1
    Идентификатор : 2
    Формат : AC-3
    Формат/Информация : Audio Coding 3
    Расширение режима : CM (complete main)
    Параметр Endianness формата : Big
    Идентификатор кодека : A_AC3
    Продолжительность : 1 ч. 57 м.
    Вид битрейта : Постоянный
    Битрейт : 384 Кбит/сек
    Каналы : 6 каналов
    Расположение каналов : Front: L C R, Side: L R, LFE
    Частота : 48,0 КГц
    Частота кадров : 31,250 кадров/сек (1536 spf)
    Метод сжатия : С потерями
    Размер потока : 323 Мбайт (6%)
    Заголовок : дубляж
    Язык : Russian
    Default : Да
    Forced : Нет
    Аудио #2
    Идентификатор : 3
    Формат : AC-3
    Формат/Информация : Audio Coding 3
    Расширение режима : CM (complete main)
    Параметр Endianness формата : Big
    Идентификатор кодека : A_AC3
    Продолжительность : 1 ч. 57 м.
    Вид битрейта : Постоянный
    Битрейт : 640 Кбит/сек
    Каналы : 6 каналов
    Расположение каналов : Front: L C R, Side: L R, LFE
    Частота : 48,0 КГц
    Частота кадров : 31,250 кадров/сек (1536 spf)
    Метод сжатия : С потерями
    Размер потока : 539 Мбайт (10%)
    Заголовок : авторский
    Язык : Russian
    Default : Нет
    Forced : Нет
    Аудио #3
    Идентификатор : 4
    Формат : AC-3
    Формат/Информация : Audio Coding 3
    Расширение режима : CM (complete main)
    Параметр Endianness формата : Big
    Идентификатор кодека : A_AC3
    Продолжительность : 1 ч. 57 м.
    Вид битрейта : Постоянный
    Битрейт : 640 Кбит/сек
    Каналы : 6 каналов
    Расположение каналов : Front: L C R, Side: L R, LFE
    Частота : 48,0 КГц
    Частота кадров : 31,250 кадров/сек (1536 spf)
    Метод сжатия : С потерями
    Размер потока : 539 Мбайт (10%)
    Заголовок : авторский с цензурой
    Язык : Russian
    Default : Нет
    Forced : Нет
    Аудио #4
    Идентификатор : 5
    Формат : DTS
    Формат/Информация : Digital Theater Systems
    Режим : 16
    Параметр Endianness формата : Big
    Идентификатор кодека : A_DTS
    Продолжительность : 1 ч. 57 м.
    Вид битрейта : Постоянный
    Битрейт : 1509 Кбит/сек
    Каналы : 6 каналов
    Расположение каналов : Front: L C R, Side: L R, LFE
    Частота : 48,0 КГц
    Частота кадров : 93,750 кадра/сек (512 spf)
    Битовая глубина : 24 бит
    Метод сжатия : С потерями
    Размер потока : 1,24 Гбайт (23%)
    Заголовок : оригинал
    Язык : English
    Default : Нет
    Forced : Нет
    Текст #1
    Идентификатор : 6
    Формат : UTF-8
    Идентификатор кодека : S_TEXT/UTF8
    Идентификатор кодека/Информация : UTF-8 Plain Text
    Заголовок : русские
    Язык : Russian
    Default : Нет
    Forced : Нет
    Текст #2
    Идентификатор : 7
    Формат : UTF-8
    Идентификатор кодека : S_TEXT/UTF8
    Идентификатор кодека/Информация : UTF-8 Plain Text
    Заголовок : английские
    Язык : English
    Default : Нет
    Forced : Нет
    Меню
    00:00:00.000 : en:00:00:00.000
    00:07:27.822 : en:00:07:27.822
    00:15:43.901 : en:00:15:43.901
    00:21:05.931 : en:00:21:05.931
    00:26:36.637 : en:00:26:36.637
    00:30:33.915 : en:00:30:33.915
    00:36:39.656 : en:00:36:39.656
    00:43:15.843 : en:00:43:15.843
    00:50:39.328 : en:00:50:39.328
    00:56:44.109 : en:00:56:44.109
    01:04:59.604 : en:01:04:59.604
    01:09:24.619 : en:01:09:24.619
    01:17:38.862 : en:01:17:38.862
    01:23:37.679 : en:01:23:37.679
    01:31:53.800 : en:01:31:53.800

    Скриншоты

    Пример субтитров

    10
    00:05:42,742 --> 00:05:44,042
    Только приехала в Лос Анжелес?
    11
    00:05:48,414 --> 00:05:50,916
    Откуда знаешь?
    12
    00:05:50,918 --> 00:05:52,017
    По виду понятно.
    13
    00:05:55,021 --> 00:05:57,689
    Не волнуйся, солнце.
    14
    00:05:57,691 --> 00:06:00,625
    Образ испуганной лани -
    как раз то, что им нужно.
    15
    00:06:06,799 --> 00:06:07,899
    Так. Давай я помогу.
    16
    00:06:18,845 --> 00:06:19,945
    Ты модель?
    17
    00:06:21,547 --> 00:06:23,548
    Нет, визажист.
    18
    00:06:27,387 --> 00:06:28,553
    Где остановилась?
    Внимание! Присутствует не нормативная лексика.
    Скачать .torrent

    Скачать торрент-файл бесплатно и на максимальной скорости!

    Как скачивать? · Что такое торрент? · Рейтинг и ограничения

    !ВНИМАНИЕ!
    Сайт не распространяет и не хранит электронные версии произведений, а занимается лишь лишь предоставлением доступа к создаваемому пользователями каталогу ссылок на торрент-файлы, которые содержат только списки хеш-сумм, убедительная просьба с жалобами обращаться напрямую к пользователю. Файлы для обмена на трекере предоставлены пользователями сайта, и администрация не несёт ответственности за их содержание. Просьба не заливать файлы, защищенные авторскими правами, а также файлы нелегального содержания!


    _________________
    [Профиль] [ЛС]
    Показать сообщения:    
    Ответить на тему

    Текущее время: Сегодня, в 20:04

    Часовой пояс: GMT + 2



    Вы не можете начинать темы
    Вы не можете отвечать на сообщения
    Вы не можете редактировать свои сообщения
    Вы не можете удалять свои сообщения
    Вы не можете голосовать в опросах
    Вы не можете прикреплять файлы к сообщениям
    Вы не можете скачивать файлы