BitTorrentTracker PerecTracker.org
BitTorrentTracker PerecTracker.org
    
Регистрация  ·  Вход
 
 · 
Забыли пароль?

  • Зачинщики / Masterminds (Джаред Хесс / Jared Hess ) [2016, США, Боевик, комедия, криминал, WEB-DL, HD (720p)] DUB

    Ответить на тему
     
    Автор Сообщение

    rechyn

    Создавать темы 22-Ноя-2016 19:00

           

    [Цитировать]

    Зачинщики / Masterminds
    «А что бы ты делал с $17 миллионами?»
    -Год выпуска: 2016
    Страна: США
    Жанр: Боевик, комедия, криминал
    Продолжительность: 01:30:44
    Перевод: Дублированный (iTunes)
    Оригинальная аудиодорожка: Нет
    Cубтитры: Нет
    Режиссёр: Джаред Хесс
    Сценарий: Крис Боуман, Хаббел Палмер, Эмили Спайви
    Продюсер: Джон Голдвин, Лорн Майклз, Эндрю Панай
    Оператор: Эрик Уилсон
    Композитор: Джеф Дзанелли
    Художник: Клэйтон Хартли, Эллиотт Глик, Сара Эдвардс
    Монтаж: Кит Брахманн, Дэвид Ренни
    В ролях: Зак Галифианакис, Оуэн Уилсон, Кристен Уиг, Джейсон Судейкис, Кейт МакКиннон, Лесли Джонс, Мэри Элизабет Эллис, Кен Марино, Девин Рэтрей, Джон Дэйли
    Бюджет: $52 000 000
    Сборы в США: $17 368 022
    Сборы в России: $1 229 160
    Мировая премьера: 28 сентября 2016
    Премьера (РФ): 29 сентября 2016, «Парадиз»
    Описание: Бывший клерк банка вместе со своей любовницей проворачивает дерзкое ограбление инкассаторской машины и забирает 17 миллионов баксов. Но по неопытности преступники-дебютанты оставляют на месте преступления столько следов и улик, что вряд ли смогут получить удовольствие от добычи.-Качество исходника: WEB-DL 720p (NNMClub)
    Качество: WEB-DL
    Тип: HD (720p)
    Контейнер: M4V
    Видео: H.264, 1280@960x692, 1.85:1, 4 035 Kbps, 25.000 fps
    Аудио 1: Русский/Дублированный (iTunes), AAC / 2.0 / 160 Kbps / 48.0 KHz
    Аудио 2: Русский/Дублированный (iTunes), AC-3 / 5.1 / 384 Kbps / 48.0 KHz
    -

    iTunes Meta Tags

    Sort Name: Masterminds
    XID: Apple:vendor_id:2016-713089
    contentID: 1159762255
    Copyright: © 2016 ARMORED CAR PRODUCTIONS, LLC ALL RIGHTS RESERVED
    Screenwriters: Крис Боуман, Хаббел Палмер, Эмили Спайви
    Producers: Джон Голдвин, Лорн Майклз, Эндрю Панай
    Director: Джаред Хесс
    Cast: Зак Галифианакис, Оуэн Уилсон, Кристен Уиг, Джейсон Судейкис, Кейт МакКиннон, Лесли Джонс, Мэри Элизабет Эллис, Кен Марино, Девин Рэтрей, Джон Дэйли, Диомид Виноградов, Илья Бледный, Татьяна Шитова, Дмитрий Поляновский, Ольга Кузнецова
    Studio: Relativity Studios
    Rating: 4
    Long Description: Бывший клерк банка вместе со своей любовницей проворачивает дерзкое ограбление инкассаторской машины и забирает 17 миллионов баксов. Но по неопытности преступники-дебютанты оставляют на месте преступления столько следов и улик, что вряд ли смогут получить удовольствие от добычи.
    Description: Бывший клерк банка вместе со своей любовницей проворачивает дерзкое ограбление инкассаторской машины и забирает 17 миллионов баксов. Но по неопытности преступники-дебютанты оставляют на месте преступления столько следов и улик, что вряд ли смогут получить удовольствие от добычи.
    Release Date: 2016-09-28T08:00:00Z
    Genre: Comedy
    Artist: Jared Hess
    Name: Masterminds (2016)

    MediaInfo

    General
    Complete name : /Users/imac/HandBrake/Masterminds.WEB-DL.720p.m4v
    Format : MPEG-4
    Codec ID : M4V
    File size : 2.91 GiB
    Duration : 1h 30mn
    Overall bit rate mode : Variable
    Overall bit rate : 4 585 Kbps
    Movie name : Masterminds (2016)
    Performer : Jared Hess
    Director : Джаред Хесс
    Actor : Зак Галифианакис / Оуэн Уилсон / Кристен Уиг / Джейсон Судейкис / Кейт МакКиннон / Лесли Джонс / Мэри Элизабет Эллис / Кен Марино / Девин Рэтрей / Джон Дэйли / Диомид Виноградов / Илья Бледный / Татьяна Шитова / Дмитрий Поляновский / Ольга Кузнецова
    Screenplay by : Крис Боуман / Хаббел Палмер / Эмили Спайви
    Producer : Джон Голдвин / Лорн Майклз / Эндрю Панай
    Production studio : Relativity Studios
    Genre : Comedy
    ContentType : Short Film
    Description : Бывший клерк банка вместе со своей любовницей проворачивает дерзкое ограбление инкассаторской машины и забирает 17 миллионов баксов. Но по неопытности преступники-дебютанты оставляют на месте преступления столько следов и улик, что вряд ли смогут получить удовольствие от добычи.
    Recorded date : UTC 2016-09-28 08:00:00
    Encoded date : UTC 2016-11-22 10:05:04
    Tagged date : UTC 2016-11-22 10:06:12
    Copyright : © 2016 ARMORED CAR PRODUCTIONS, LLC ALL RIGHTS RESERVED
    Cover : Yes
    Rating : None
    Title/Sort : Masterminds
    LongDescription : Бывший клерк банка вместе со своей любовницей проворачивает дерзкое ограбление инкассаторской машины и забирает 17 миллионов баксов. Но по неопытности преступники-дебютанты оставляют на месте преступления столько следов и улик, что вряд ли смогут получить удовольствие от добычи.
    HDVideo : Yes
    AppleStoreCatalogID : 1159762255
    Vendor : Apple:vendor_id:2016-713089
    ContentRating : mpaa|PG-13|300|
    Video #1
    ID : 1
    Format : AVC
    Format/Info : Advanced Video Codec
    Format profile : Main@L3.1
    Format settings, CABAC : No
    Format settings, ReFrames : 2 frames
    Codec ID : avc1
    Codec ID/Info : Advanced Video Coding
    Duration : 1h 30mn
    Bit rate : 4 035 Kbps
    Width : 960 pixels
    Height : 692 pixels
    Display aspect ratio : 1.85:1
    Frame rate mode : Constant
    Frame rate : 25.000 fps
    Color space : YUV
    Chroma subsampling : 4:2:0
    Bit depth : 8 bits
    Scan type : Progressive
    Bits/(Pixel*Frame) : 0.243
    Stream size : 2.56 GiB (88%)
    Title : Main Program
    Language : English
    Encoded date : UTC 2016-11-22 10:05:04
    Tagged date : UTC 2016-11-22 10:05:18
    Color range : Limited
    Color primaries : BT.709
    Transfer characteristics : BT.709
    Matrix coefficients : BT.709
    Video #2
    ID : 5
    Format : JPEG
    Codec ID : jpeg
    Duration : 1h 30mn
    Bit rate mode : Variable
    Bit rate : 996 bps
    Width : 640 pixels
    Height : 346 pixels
    Display aspect ratio : 1.85:1
    Frame rate mode : Variable
    Frame rate : 0.002 fps
    Minimum frame rate : 0.001 fps
    Maximum frame rate : 0.003 fps
    Color space : YUV
    Chroma subsampling : 4:2:0
    Bit depth : 8 bits
    Compression mode : Lossy
    Bits/(Pixel*Frame) : 2.249
    Stream size : 791 KiB (0%)
    Title : Chapter Images
    Language : English
    Encoded date : UTC 2016-11-22 10:05:21
    Tagged date : UTC 2016-11-22 10:05:21
    Audio #1
    ID : 2
    Format : AAC
    Format/Info : Advanced Audio Codec
    Format profile : LC
    Codec ID : 40
    Duration : 1h 30mn
    Bit rate mode : Variable
    Bit rate : 157 Kbps
    Maximum bit rate : 231 Kbps
    Channel(s) : 2 channels
    Channel positions : Front: L R
    Sampling rate : 48.0 KHz
    Compression mode : Lossy
    Stream size : 102 MiB (3%)
    Title : Russian Stereo
    Language : Russian
    Encoded date : UTC 2016-11-22 10:05:04
    Tagged date : UTC 2016-11-22 10:05:09
    Audio #2
    ID : 3
    Format : AC-3
    Format/Info : Audio Coding 3
    Mode extension : CM (complete main)
    Format settings, Endianness : Big
    Codec ID : ac-3
    Duration : 1h 30mn
    Bit rate mode : Constant
    Bit rate : 384 Kbps
    Channel(s) : 6 channels
    Channel positions : Front: L C R, Side: L R, LFE
    Sampling rate : 48.0 KHz
    Bit depth : 16 bits
    Compression mode : Lossy
    Stream size : 249 MiB (8%)
    Title : Russian DD 5.1
    Language : Russian
    Encoded date : UTC 2016-11-22 10:05:04
    Tagged date : UTC 2016-11-22 10:05:09
    Menu #1
    00:00:00.000 : 1
    00:06:20.000 : 2
    00:12:27.200 : 3
    00:19:46.960 : 4
    00:26:52.880 : 5
    00:32:31.160 : 6
    00:39:10.680 : 7
    00:45:47.320 : 8
    00:51:07.600 : 9
    00:58:37.560 : 10
    01:04:24.520 : 11
    01:10:03.840 : 12
    01:16:06.160 : 13
    Menu #2
    ID : 4
    Codec ID : text
    Duration : 1h 30mn
    Language : English
    Encoded date : UTC 2016-11-22 10:05:18
    Tagged date : UTC 2016-11-22 10:05:18
    00:00:00.000 : 1
    00:06:20.000 : 2
    00:12:27.200 : 3
    00:19:46.960 : 4
    00:26:52.880 : 5
    00:32:31.160 : 6
    00:39:10.680 : 7
    00:45:47.320 : 8
    00:51:07.600 : 9
    00:58:37.560 : 10
    01:04:24.520 : 11
    01:10:03.840 : 12
    01:16:06.160 : 13
    Bit rate mode : VBR

    Скриншоты

    -

    Релиз подготовлен для просмотра на Apple TV, iPad, iPhone, iPod Touch.
    Для просмотра данного релиза на компьютере с ОС Windows рекомендуется использовать VLC media player
    Скачать .torrent

    Скачать торрент-файл бесплатно и на максимальной скорости!

    Как скачивать? · Что такое торрент? · Рейтинг и ограничения

    !ВНИМАНИЕ!
    Сайт не распространяет и не хранит электронные версии произведений, а занимается лишь лишь предоставлением доступа к создаваемому пользователями каталогу ссылок на торрент-файлы, которые содержат только списки хеш-сумм, убедительная просьба с жалобами обращаться напрямую к пользователю. Файлы для обмена на трекере предоставлены пользователями сайта, и администрация не несёт ответственности за их содержание. Просьба не заливать файлы, защищенные авторскими правами, а также файлы нелегального содержания!


    _________________
    [Профиль] [ЛС]
    Показать сообщения:    
    Ответить на тему

    Текущее время: Сегодня, в 18:28

    Часовой пояс: GMT + 2



    Вы не можете начинать темы
    Вы не можете отвечать на сообщения
    Вы не можете редактировать свои сообщения
    Вы не можете удалять свои сообщения
    Вы не можете голосовать в опросах
    Вы не можете прикреплять файлы к сообщениям
    Вы не можете скачивать файлы