BitTorrentTracker PerecTracker.org
BitTorrentTracker PerecTracker.org
    
Регистрация  ·  Вход
 
 · 
Забыли пароль?

  • Части тела / Private Parts (Бетти Томас / Betty Thomas) [1997, США, комедия, биография, WEB-DL 1080p] DVO + AVO (Санаев) + VO (Есарев) + Original Eng + Sub Rus, Eng

    Ответить на тему
     
    Автор Сообщение

    Light

    Создавать темы 22-Ноя-2016 14:50

           

    [Цитировать]

    Части тела / Private Parts-Страна: США
    Студия: Northern Lights Entertainment, Paramount Pictures, Rysher Entertainment
    Жанр: Комедия, Биография
    Год выпуска: 1997
    Продолжительность: 01:49:29
    Перевод 1: Профессиональный (двухголосый закадровый)
    Перевод 2: Авторский (одноголосый закадровый) П. Санаев
    Перевод 3: Одноголосый закадровый Д. Есарев
    Субтитры: Русские, Английские
    Оригинальная аудиодорожка: Английская
    Режиссер: Бетти Томас / Betty Thomas
    В ролях: Хауард Стерн, Робин Куиверс, Мэри МакКормак, Фред Норрис, Пол Джаматти, Гэри Делл'Абате, Джеки Мартлинг, Кэрол Олт, Келли Бишоп, Хенри Гудман, Джонатан Хэдари, Пол Хехт, Эллисон Джэнни, Майкл Мерфи, Джеймс Мерто, Ричард Портнов, Рени Сантони, Ли Уилкоф.
    Описание: По автобиографической книге Говарда Стерна, популярнейшего радио диск-жокея, снявшегося в картине в роли самого себя (очень многие персонажи сыграли самих себя). Он добился успеха, благодаря своей шокирующей искренности и вследствие этого невероятной скандальности, так как люди обычно не рассказывают о себе, а подбирают для острот выдуманный персонаж. "Почему вы слушаете его?", - спрашивают людей на улице. - "А интересно, что он скажет дальше". Рассказ об этом непредсказуемом комике-импровизаторе построен режиссером от первого лица и начинается с детства, когда будущей звезде эфира было лет восемь. По жанру фильм, конечно, - комедия, но по сути - это драма, в которой, как и в жизни, есть много грустного и смешного. В жизни Говарда Стерна смешного больше, чем у большинства людей.-Рейтинг
    -Сэмпл
    Тип релиза: WEB-DL 1080p
    Контейнер: MKV
    Видео: 1920x1080 (16:9), 23.976 fps, x264, ~13700 kbps
    Аудио 1: Russian: 48 kHz, AC3, 3/2 (L,C,R,l,r) + LFE ch, ~384 kbps | Двухголосый закадровый
    Аудио 2: Russian: 48 kHz, E-AC3, 3/2 (L,C,R,l,r) + LFE ch, ~640 kbps | Одноголосый закадровый, П. Санаев
    Аудио 3: Russian: 48 kHz, AC3, 3/2 (L,C,R,l,r) + LFE ch, ~448 kbps | Одноголосый закадровый, Д. Есарев
    Аудио 4: English: 48 kHz, E-AC3, 3/2 (L,C,R,l,r) + LFE ch, ~640 kbps
    Субтиры: Русские (Санаев), Английские
    Формат субтитров: softsub (SRT)
    Рейтинг MPAA - R.
    Внимание! В переводах присутствует ненормативная лексика!

    Дополнительно

    За дорогу №1 спасибо team_6strun.
    Дорожка П. Санаева собрана с голоса. Работа со звуком - Skazhutin.
    Перевод Д. Есарева доступен благодаря nortonn. Работа со звуком - mihaildns.

    MediaInfo


    General
    Unique ID : 239645337838923837795143658388288070889 (0xB44A03623BD64813810C9E07E29664E9)
    Complete name : E:\video_rutracker\Private.Parts.1997.1080p.WEB-DL.3xRus.Eng.Sub.mkv
    Format : Matroska
    Format version : Version 2
    File size : 12.3 GiB
    Duration : 1h 49mn
    Overall bit rate mode : Variable
    Overall bit rate : 16.1 Mbps
    Movie name : Private.Parts.1997 | RuTracker | igrok2012
    Encoded date : UTC 2016-11-15 20:35:06
    Writing application : mkvmerge v8.3.0 ('Over the Horizon') 64bit
    Writing library : libebml v1.3.1 + libmatroska v1.4.2
    Cover : Yes
    Attachments : cover.jpg
    Video
    ID : 1
    Format : AVC
    Format/Info : Advanced Video Codec
    Format profile : High@L4
    Format settings, CABAC : Yes
    Format settings, ReFrames : 4 frames
    Codec ID : V_MPEG4/ISO/AVC
    Duration : 1h 49mn
    Bit rate mode : Variable
    Bit rate : 13.7 Mbps
    Maximum bit rate : 15.0 Mbps
    Width : 1 920 pixels
    Height : 1 080 pixels
    Display aspect ratio : 16:9
    Frame rate mode : Constant
    Frame rate : 23.976 (24000/1001) fps
    Color space : YUV
    Chroma subsampling : 4:2:0
    Bit depth : 8 bits
    Scan type : Progressive
    Bits/(Pixel*Frame) : 0.275
    Stream size : 10.5 GiB (85%)
    Default : No
    Forced : No
    Color range : Limited
    Color primaries : BT.709
    Transfer characteristics : BT.709
    Matrix coefficients : BT.709
    Audio #1
    ID : 2
    Format : AC-3
    Format/Info : Audio Coding 3
    Mode extension : CM (complete main)
    Format settings, Endianness : Big
    Codec ID : A_AC3
    Duration : 1h 49mn
    Bit rate mode : Constant
    Bit rate : 384 Kbps
    Channel(s) : 6 channels
    Channel positions : Front: L C R, Side: L R, LFE
    Sampling rate : 48.0 KHz
    Frame rate : 31.250 fps (1536 spf)
    Compression mode : Lossy
    Delay relative to video : -167ms
    Stream size : 301 MiB (2%)
    Title : Двухголосый закадровый
    Language : Russian
    Default : Yes
    Forced : No
    Audio #2
    ID : 3
    Format : E-AC-3
    Format/Info : Audio Coding 3
    Format settings, Endianness : Big
    Codec ID : A_EAC3
    Duration : 1h 49mn
    Bit rate mode : Constant
    Bit rate : 640 Kbps
    Channel(s) : 6 channels
    Channel positions : Front: L C R, Side: L R, LFE
    Sampling rate : 48.0 KHz
    Frame rate : 187.500 fps (256 spf)
    Compression mode : Lossy
    Delay relative to video : -167ms
    Stream size : 501 MiB (4%)
    Title : Одноголосый закадровый, П. Санаев
    Language : Russian
    Default : No
    Forced : No
    Audio #3
    ID : 4
    Format : AC-3
    Format/Info : Audio Coding 3
    Mode extension : CM (complete main)
    Format settings, Endianness : Big
    Codec ID : A_AC3
    Duration : 1h 49mn
    Bit rate mode : Constant
    Bit rate : 448 Kbps
    Channel(s) : 6 channels
    Channel positions : Front: L C R, Side: L R, LFE
    Sampling rate : 48.0 KHz
    Frame rate : 31.250 fps (1536 spf)
    Compression mode : Lossy
    Delay relative to video : -167ms
    Stream size : 351 MiB (3%)
    Title : Одноголосый закадровый, Д. Есарев
    Language : Russian
    Default : No
    Forced : No
    Audio #4
    ID : 5
    Format : E-AC-3
    Format/Info : Audio Coding 3
    Format settings, Endianness : Big
    Codec ID : A_EAC3
    Duration : 1h 49mn
    Bit rate mode : Constant
    Bit rate : 640 Kbps
    Channel(s) : 6 channels
    Channel positions : Front: L C R, Side: L R, LFE
    Sampling rate : 48.0 KHz
    Frame rate : 187.500 fps (256 spf)
    Compression mode : Lossy
    Stream size : 501 MiB (4%)
    Language : English
    Default : No
    Forced : No
    Text #1
    ID : 6
    Format : UTF-8
    Codec ID : S_TEXT/UTF8
    Codec ID/Info : UTF-8 Plain Text
    Language : Russian
    Default : No
    Forced : No
    Text #2
    ID : 7
    Format : UTF-8
    Codec ID : S_TEXT/UTF8
    Codec ID/Info : UTF-8 Plain Text
    Language : English
    Default : No
    Forced : No

    Скриншоты

    Скачать .torrent

    Скачать торрент-файл бесплатно и на максимальной скорости!

    Как скачивать? · Что такое торрент? · Рейтинг и ограничения

    !ВНИМАНИЕ!
    Сайт не распространяет и не хранит электронные версии произведений, а занимается лишь лишь предоставлением доступа к создаваемому пользователями каталогу ссылок на торрент-файлы, которые содержат только списки хеш-сумм, убедительная просьба с жалобами обращаться напрямую к пользователю. Файлы для обмена на трекере предоставлены пользователями сайта, и администрация не несёт ответственности за их содержание. Просьба не заливать файлы, защищенные авторскими правами, а также файлы нелегального содержания!


    _________________
    [Профиль] [ЛС]
    Показать сообщения:    
    Ответить на тему

    Текущее время: Сегодня, в 00:19

    Часовой пояс: GMT + 2



    Вы не можете начинать темы
    Вы не можете отвечать на сообщения
    Вы не можете редактировать свои сообщения
    Вы не можете удалять свои сообщения
    Вы не можете голосовать в опросах
    Вы не можете прикреплять файлы к сообщениям
    Вы не можете скачивать файлы