BitTorrentTracker PerecTracker.org
BitTorrentTracker PerecTracker.org
    
Регистрация  ·  Вход
 
 · 
Забыли пароль?

  • Крутой и цыпочки / Мужчина в доме / Хозяин дома / Man of the House (Стивен Херек / Stephen Herek) [2005, США, комедия, HDTV 1080i] 3x DVO (Видеосервис, Tycoon, SDI Media)+ 2x AVO (Рудой, Визгунов) + 2x Sub (Rus, Eng) + Original Eng

    Ответить на тему
     
    Автор Сообщение

    Light

    Создавать темы 22-Ноя-2016 14:50

           

    [Цитировать]

    Крутой и цыпочки / Мужчина в доме / Хозяин дома / Man of the House«Protecting witnesses is a challenge. Living with them is impossible»
    Страна: США
    Жанр: комедия
    Год выпуска: 2005
    Продолжительность: 01:35:53
    Перевод 1: Профессиональный (двухголосый закадровый) Видеосервис | DVD
    Перевод 2: Профессиональный (двухголосый закадровый) Tycoon | DVD
    Перевод 3: Авторский (одноголосый закадровый) Евгений Рудой
    Перевод 4: Профессиональный (двухголосый закадровый) SDI Media | HDTV*
    Перевод 5: Авторский (одноголосый закадровый) Сергей Визгунов
    Cубтитры: русские, английские
    Оригинальная аудиодорожка: английский
    -
    Режиссер: Стивен Херек / Stephen Herek
    В ролях: Томми Ли Джонс, Седрик «Развлекатель», Кристина Милиан, Паула Гарсес, Моника Кина, Ванесса Ферлито, Келли Гарнер, Энн Арчер, Брайан Ван Холт, Ши Уигхэм
    -
    Описание: Добро пожаловать в смертельно опасный мир танцев с помпонами! Невозмутимый, крутой и саркастичный Роланд Шарп - воплощенный идеал техасского рейнджера. Одинаково хорошо владеющий острым словцом и верным револьвером, он всегда с блеском выполнял любые задания. Но теперь его ждет поистине суровая миссия: герой должен... круглые сутки охранять пять девушек-болельщиц, ставших свидетелями убийства! Под видом помощника тренера Шарп примыкает к их команде, еще не ведая, что ему предстоит не столько оборонять дерзких ангелочков, сколько обороняться от них самому. День за днем проказницы изобретают все новые каверзы, дабы вывести своего героически отражающего их нападки стража из себя. Но настает день, когда атака последует совсем с другой стороны...

    * Собственная запись со спутника Eutelsat 36A/36B (36°E) | TV1000 Comedy HD (эфир 13.11.2016г.)
    Тип релиза: HDTV 1080i
    Контейнер: MKV
    Видео: MPEG-4 AVC / PAL 16:9 / 1920x1080 (1,78:1) / 9117 kbps / 25,000 fps / 0.088 bit/pixel / High@L4
    Аудио 1: Russian / Dolby Digital Audio / 5.1 Ch / 48 kHz / 448 kbps / 16 bit | DVO | Видеосервис | DVD
    Аудио 2: Russian / Dolby Digital Audio / 5.1 Ch / 48 kHz / 448 kbps / 16 bit | DVO | Tycoon | DVD
    Аудио 3: Russian / Dolby Digital Audio / 5.1 Ch / 48 kHz / 448 kbps / 16 bit | AVO | Евгений Рудой
    Аудио 4: Russian / Dolby Digital Audio / 2.0 Ch / 48 kHz / 192 kbps / 16 bit | DVO | SDI Media | HDTV*
    Аудио 5: Russian / Dolby Digital Audio / 2.0 Ch / 48 kHz / 160 kbps / 16 bit | AVO | Сергей Визгунов
    Аудио 6: English / Dolby Digital Audio / 5.1 Ch / 48 kHz / 448 kbps / 16 bit | Original | DVD
    Формат субтитров: softsub (SRT)
    Навигация по главам: есть

    Примечание

    Дорожка №3 получена наложением чистого голоса на центральный канал оригинала Dolby Digital. Дорожка №4 - из потока вещания.

    MediaInfo

    Общее
    Уникальный идентификатор                 : 244001575069651327898287232712659562988 (0xB790FE762821C0738E6756B49C19F1EC)
    Полное имя                               : N:\HDTV\Man of the House 2005 HDTV 1080i MPEG4 DD5.1.mkv
    Формат                                   : Matroska
    Версия формата                           : Version 4 / Version 2
    Размер файла                             : 7,55 Гбайт
    Продолжительность                        : 1 ч. 35 м.
    Общий поток                              : 11,3 Мбит/сек
    Название фильма                          : Release for RuTracker © flaSI-I
    Дата кодирования                         : UTC 2016-11-17 21:24:23
    Программа кодирования                    : mkvmerge v9.5.0 ('Quiet Fire') 64bit
    Библиотека кодирования                   : libebml v1.3.4 + libmatroska v1.4.5
    Видео
    Идентификатор                            : 1
    Формат                                   : AVC
    Формат/Информация                        : Advanced Video Codec
    Профиль формата                          : High@L4
    Параметр CABAC формата                   : Да
    Параметр ReFrames формата                : 4 кадра
    Параметр GOP формата                     : M=4, N=28
    Идентификатор кодека                     : V_MPEG4/ISO/AVC
    Продолжительность                        : 1 ч. 35 м.
    Битрейт                                  : 9117 Кбит/сек
    Ширина                                   : 1920 пикселей
    Высота                                   : 1080 пикселей
    Соотношение сторон                       : 16:9
    Режим частоты кадров                     : Переменный
    Частота кадров                           : 50,000 кадров/сек
    Частота кадров в оригинале               : 25,000 кадров/сек
    Стандарт вещания                         : Component
    Цветовое пространство                    : YUV
    Субдискретизация насыщенности            : 4:2:0
    Битовая глубина                          : 8 бит
    Тип развёртки                            : Чересстрочная
    Метод сохранения типа развёртки          : Раздельные поля
    Порядок развёртки                        : Верхнее поле первое
    Бит/(Пиксели*Кадры)                      : 0.088
    Размер потока                            : 6,11 Гбайт (81%)
    Язык                                     : English
    Default                                  : Да
    Forced                                   : Нет
    Цветовой диапазон                        : Limited
    Основные цвета                           : BT.709
    Характеристики трансфера                 : BT.709
    Коэффициенты матрицы                     : BT.709
    Аудио #1
    Идентификатор                            : 2
    Формат                                   : AC-3
    Формат/Информация                        : Audio Coding 3
    Расширение режима                        : CM (complete main)
    Параметр Endianness формата              : Big
    Идентификатор кодека                     : A_AC3
    Продолжительность                        : 1 ч. 35 м.
    Вид битрейта                             : Постоянный
    Битрейт                                  : 448 Кбит/сек
    Каналы                                   : 6 каналов
    Расположение каналов                     : Front: L C R, Side: L R, LFE
    Частота                                  : 48,0 КГц
    Частота кадров                           : 31,250 кадров/сек (1536 spf)
    Битовая глубина                          : 16 бит
    Метод сжатия                             : С потерями
    Размер потока                            : 307 Мбайт (4%)
    Заголовок                                : DVO | Видеосервис | DVD
    Язык                                     : Russian
    Default                                  : Да
    Forced                                   : Нет
    Аудио #2
    Идентификатор                            : 3
    Формат                                   : AC-3
    Формат/Информация                        : Audio Coding 3
    Расширение режима                        : CM (complete main)
    Параметр Endianness формата              : Big
    Идентификатор кодека                     : A_AC3
    Продолжительность                        : 1 ч. 35 м.
    Вид битрейта                             : Постоянный
    Битрейт                                  : 448 Кбит/сек
    Каналы                                   : 6 каналов
    Расположение каналов                     : Front: L C R, Side: L R, LFE
    Частота                                  : 48,0 КГц
    Частота кадров                           : 31,250 кадров/сек (1536 spf)
    Битовая глубина                          : 16 бит
    Метод сжатия                             : С потерями
    Размер потока                            : 307 Мбайт (4%)
    Заголовок                                : DVO | Tycoon | DVD
    Язык                                     : Russian
    Default                                  : Нет
    Forced                                   : Нет
    Аудио #3
    Идентификатор                            : 4
    Формат                                   : AC-3
    Формат/Информация                        : Audio Coding 3
    Расширение режима                        : CM (complete main)
    Параметр Endianness формата              : Big
    Идентификатор кодека                     : A_AC3
    Продолжительность                        : 1 ч. 35 м.
    Вид битрейта                             : Постоянный
    Битрейт                                  : 448 Кбит/сек
    Каналы                                   : 6 каналов
    Расположение каналов                     : Front: L C R, Side: L R, LFE
    Частота                                  : 48,0 КГц
    Частота кадров                           : 31,250 кадров/сек (1536 spf)
    Битовая глубина                          : 16 бит
    Метод сжатия                             : С потерями
    Размер потока                            : 307 Мбайт (4%)
    Заголовок                                : AVO | Евгений Рудой
    Язык                                     : Russian
    Default                                  : Нет
    Forced                                   : Нет
    Аудио #4
    Идентификатор                            : 5
    Формат                                   : AC-3
    Формат/Информация                        : Audio Coding 3
    Расширение режима                        : CM (complete main)
    Параметр Endianness формата              : Big
    Идентификатор кодека                     : A_AC3
    Продолжительность                        : 1 ч. 35 м.
    Вид битрейта                             : Постоянный
    Битрейт                                  : 192 Кбит/сек
    Каналы                                   : 2 канала
    Расположение каналов                     : Front: L R
    Частота                                  : 48,0 КГц
    Частота кадров                           : 31,250 кадров/сек (1536 spf)
    Битовая глубина                          : 16 бит
    Метод сжатия                             : С потерями
    Размер потока                            : 132 Мбайт (2%)
    Заголовок                                : DVO | SDI Media | HDTV
    Язык                                     : Russian
    Default                                  : Нет
    Forced                                   : Нет
    Аудио #5
    Идентификатор                            : 6
    Формат                                   : AC-3
    Формат/Информация                        : Audio Coding 3
    Расширение режима                        : CM (complete main)
    Параметр Endianness формата              : Big
    Идентификатор кодека                     : A_AC3
    Продолжительность                        : 1 ч. 35 м.
    Вид битрейта                             : Постоянный
    Битрейт                                  : 160 Кбит/сек
    Каналы                                   : 2 канала
    Расположение каналов                     : Front: L R
    Частота                                  : 48,0 КГц
    Частота кадров                           : 31,250 кадров/сек (1536 spf)
    Битовая глубина                          : 16 бит
    Метод сжатия                             : С потерями
    Размер потока                            : 110 Мбайт (1%)
    Заголовок                                : AVO | Сергей Визгунов
    Язык                                     : Russian
    Default                                  : Нет
    Forced                                   : Нет
    Аудио #6
    Идентификатор                            : 7
    Формат                                   : AC-3
    Формат/Информация                        : Audio Coding 3
    Расширение режима                        : CM (complete main)
    Параметр Endianness формата              : Big
    Идентификатор кодека                     : A_AC3
    Продолжительность                        : 1 ч. 35 м.
    Вид битрейта                             : Постоянный
    Битрейт                                  : 448 Кбит/сек
    Каналы                                   : 6 каналов
    Расположение каналов                     : Front: L C R, Side: L R, LFE
    Частота                                  : 48,0 КГц
    Частота кадров                           : 31,250 кадров/сек (1536 spf)
    Битовая глубина                          : 16 бит
    Метод сжатия                             : С потерями
    Размер потока                            : 307 Мбайт (4%)
    Заголовок                                : Original | DVD
    Язык                                     : English
    Default                                  : Нет
    Forced                                   : Нет
    Текст #1
    Идентификатор                            : 8
    Формат                                   : UTF-8
    Идентификатор кодека                     : S_TEXT/UTF8
    Идентификатор кодека/Информация          : UTF-8 Plain Text
    Продолжительность                        : 1 ч. 31 м.
    Битрейт                                  : 113 бит/сек
    Count of elements                        : 1062
    Размер потока                            : 76,2 Кбайт (0%)
    Заголовок                                : DVD
    Язык                                     : Russian
    Default                                  : Нет
    Forced                                   : Нет
    Текст #2
    Идентификатор                            : 9
    Формат                                   : UTF-8
    Идентификатор кодека                     : S_TEXT/UTF8
    Идентификатор кодека/Информация          : UTF-8 Plain Text
    Продолжительность                        : 1 ч. 31 м.
    Битрейт                                  : 68 бит/сек
    Count of elements                        : 1210
    Размер потока                            : 45,4 Кбайт (0%)
    Заголовок                                : DVD
    Язык                                     : English
    Default                                  : Нет
    Forced                                   : Нет
    Меню
    00:00:00.000                             : en:Chapter 1
    00:06:33.567                             : en:Chapter 2
    00:09:39.767                             : en:Chapter 3
    00:12:24.867                             : en:Chapter 4
    00:13:59.067                             : en:Chapter 5
    00:17:33.868                             : en:Chapter 6
    00:19:30.535                             : en:Chapter 7
    00:23:11.269                             : en:Chapter 8
    00:26:39.769                             : en:Chapter 9
    00:29:16.769                             : en:Chapter 10
    00:31:43.969                             : en:Chapter 11
    00:35:22.269                             : en:Chapter 12
    00:38:51.170                             : en:Chapter 13
    00:42:27.170                             : en:Chapter 14
    00:47:55.337                             : en:Chapter 15
    00:51:05.404                             : en:Chapter 16
    00:54:59.372                             : en:Chapter 17
    00:56:28.672                             : en:Chapter 18
    00:59:29.606                             : en:Chapter 19
    01:02:53.540                             : en:Chapter 20
    01:06:33.207                             : en:Chapter 21
    01:09:08.474                             : en:Chapter 22
    01:14:26.841                             : en:Chapter 23
    01:17:01.341                             : en:Chapter 24
    01:19:48.209                             : en:Chapter 25
    01:22:48.743                             : en:Chapter 26
    01:25:13.010                             : en:Chapter 27
    01:31:51.210                             : en:Chapter 28

    Скриншоты

    -

    Скачать .torrent

    Скачать торрент-файл бесплатно и на максимальной скорости!

    Как скачивать? · Что такое торрент? · Рейтинг и ограничения

    !ВНИМАНИЕ!
    Сайт не распространяет и не хранит электронные версии произведений, а занимается лишь лишь предоставлением доступа к создаваемому пользователями каталогу ссылок на торрент-файлы, которые содержат только списки хеш-сумм, убедительная просьба с жалобами обращаться напрямую к пользователю. Файлы для обмена на трекере предоставлены пользователями сайта, и администрация не несёт ответственности за их содержание. Просьба не заливать файлы, защищенные авторскими правами, а также файлы нелегального содержания!


    _________________
    [Профиль] [ЛС]
    Показать сообщения:    
    Ответить на тему

    Текущее время: Сегодня, в 20:04

    Часовой пояс: GMT + 2



    Вы не можете начинать темы
    Вы не можете отвечать на сообщения
    Вы не можете редактировать свои сообщения
    Вы не можете удалять свои сообщения
    Вы не можете голосовать в опросах
    Вы не можете прикреплять файлы к сообщениям
    Вы не можете скачивать файлы