BitTorrentTracker PerecTracker.org
BitTorrentTracker PerecTracker.org
    
Регистрация  ·  Вход
 
 · 
Забыли пароль?

  • Как я провёл этим летом (Алексей Попогребский) [2010, триллер, BDRip]

    Ответить на тему
     
    Автор Сообщение

    rechyn

    Создавать темы 05-Июл-2015 21:53

           

    [Цитировать]

    Как я провёл этим летом
    Жанр: триллер
    Год выпуска: 2010
    Продолжительность: 02:04:22
    Режиссёр: Алексей Попогребский
    В ролях: Григорий Добрыгин, Сергей Пускепалис, Игорь Черневич, Илья Соболев, Артём Цуканов и др
    Описание: Начальник полярной станции Сергей и молодой стажер Павел — одни на острове в Северном ледовитом океане. Подходит к концу их вахта. Впервые за много лет Сергей окажется на материке, где его дожидается семья. Окончится летняя практика Павла, а он не испытал и сотой доли тех приключений, на которые рассчитывал, отправляясь в Заполярье.
    Единственный канал общения с миром — неустойчивая радиосвязь с центральной базой. В отсутствие Сергея приходит сообщение, с которым Павел попросту не знает, как поступить. Он надеется, что скоро за ними придет теплоход и тогда все разрешится само собой. Но на Крайнем Севере возможно всё. И иногда приходится выбирать между своей жизнью и жизнью другого…
    Доп. информация:
    Сэмпл: http://multi-up.com/1056963
    Качество видео: BDRip
    Формат видео: AVI
    Видео: 704x384 (1.83:1), 25 fps, XviD build 64, 2056 kbps avg, 0.30 bit/pixel
    Аудио: 48 kHz, AC3 Dolby Digital, 3/2 (L,C,R,l,r) + LFE ch, 448 kbps avg

    MediaInfo

    Формат : AVI
    Формат/Информация : Audio Video Interleave
    Профиль формата : OpenDML
    Размер файла : 2,18 Гбайт
    Продолжительность : 2 ч. 4 м.
    Общий поток : 2512 Кбит/сек
    Название фильма : Как я провёл этим летом (2010) BDRip
    Режиссёр : Алексей Попогребский
    Жанр : триллер
    Программа кодирования : VirtualDubMod 1.5.10.3 | www.virtualdub-fr.org || (build 2550/release)
    Формат оригинала/Имя : Movie
    Примечание : 15.10.2011
    Видео
    Идентификатор : 0
    Формат : MPEG-4 Visual
    Профиль формата : Advanced Simple@L5
    Параметр BVOP формата : 1
    Параметр QPel формата : Нет
    Параметр GMC формата : Без точки перехода
    Параметр матрицы формата : Выборочная
    Идентификатор кодека : XVID
    Идентификатор кодека/Подсказка : XviD
    Продолжительность : 2 ч. 4 м.
    Битрейт : 2052 Кбит/сек
    Ширина : 704 пикселя
    Высота : 384 пикселя
    Соотношение сторон : 1,85:1
    Частота кадров : 25,000 кадров/сек
    Цветовое пространство : YUV
    Субдискретизация насыщенности : 4:2:0
    Битовая глубина : 8 бит
    Тип развёртки : Прогрессивная
    Метод сжатия : С потерями
    Бит/(Пиксели*Кадры) : 0.304
    Размер потока : 1,78 Гбайт (82%)
    Библиотека кодирования : XviD 64
    Аудио
    Идентификатор : 1
    Формат : AC-3
    Формат/Информация : Audio Coding 3
    Расширение режима : CM (complete main)
    Параметр Endianness формата : Big
    Идентификатор кодека : 2000
    Продолжительность : 2 ч. 4 м.
    Вид битрейта : Постоянный
    Битрейт : 448 Кбит/сек
    Каналы : 6 каналов
    Расположение каналов : Front: L C R, Side: L R, LFE
    Частота : 48,0 КГц
    Битовая глубина : 16 бит
    Метод сжатия : С потерями
    Размер потока : 399 Мбайт (18%)
    Выравнивание : Разделение по промежуткам
    Продолжительность промежутка : 40 мс. (1,00 видеокадр)
    Время предзагрузки промежутка : 500 мс.

    Скриншот c названием фильма

    Скриншоты




    Скачать .torrent

    Скачать торрент-файл бесплатно и на максимальной скорости!

    Как скачивать? · Что такое торрент? · Рейтинг и ограничения

    !ВНИМАНИЕ!
    Сайт не распространяет и не хранит электронные версии произведений, а занимается лишь лишь предоставлением доступа к создаваемому пользователями каталогу ссылок на торрент-файлы, которые содержат только списки хеш-сумм, убедительная просьба с жалобами обращаться напрямую к пользователю. Файлы для обмена на трекере предоставлены пользователями сайта, и администрация не несёт ответственности за их содержание. Просьба не заливать файлы, защищенные авторскими правами, а также файлы нелегального содержания!


    _________________
    [Профиль] [ЛС]
    Показать сообщения:    
    Ответить на тему

    Текущее время: Сегодня, в 03:17

    Часовой пояс: GMT + 2



    Вы не можете начинать темы
    Вы не можете отвечать на сообщения
    Вы не можете редактировать свои сообщения
    Вы не можете удалять свои сообщения
    Вы не можете голосовать в опросах
    Вы не можете прикреплять файлы к сообщениям
    Вы не можете скачивать файлы