BitTorrentTracker PerecTracker.org
BitTorrentTracker PerecTracker.org
    
Регистрация  ·  Вход
 
 · 
Забыли пароль?

  • Клич свободы / Cry Freedom (Ричард Аттенборо / Richard Attenborough) [1987, Великобритания, драма, биография, история, WEB-DL 1080p] VO + Sub Eng, Rus + Original Eng

    Ответить на тему
     
    Автор Сообщение

    Light

    Создавать темы 22-Ноя-2016 14:50

           

    [Цитировать]

    Клич свободы / Cry Freedome
    Страна: Великобритания
    Жанр: драма, биография, история
    Год выпуска: 1987
    Продолжительность: 02:38:24-Перевод: Любительский одноголосый закадровый Rider
    Cубтитры: русские ( joshua7 ), английские
    Оригинальная аудиодорожка: английский-Режиссер: Ричард Аттенборо / Richard Attenborough-В ролях: Кевин Клайн, Дензел Вашингтон, Пенелопа Уилтон, Кевин МакНэлли, Джон Тоу, Тимоти Уэст, Хуанита Уотермен, Джон Харгривз, Алек МакКоуэн, Закес Мокае-Описание:
    В центре внимания фильма судьбы двух людей: лидера движения за национальное самосознание африканского населения Банту Стивена Бико и первоначально критиковавшего Бико за «чёрный расизм» белого журналиста Дональда Вудса из Ист-Лондона, портового города в ЮАР, который, постепенно подружившись с Бико и разобравшись в истинных целях деятельности молодого борца с апартеидом, встал на его сторону…-Сэмпл: Скачать-Тип релиза: WEB-DL 1080p
    Контейнер: MKV-Видео: 1 920x1080 (16:9); 13779 kbps; 23.976 fps; 0.277 bpp
    Аудио 1: Russian; AC3; 48.0 KHz; 2ch; 192 Kbps (VO)
    Аудио 2: English; EAC3; 48.0 KHz; 2ch; 224 Kbps
    Формат субтитров: softsub (SRT)

    MediaInfo

    Format : Matroska
    Format version : Version 4 / Version 2
    File size : 15.7 GiB
    Duration : 2 h 38 min
    Overall bit rate mode : Variable
    Overall bit rate : 14.2 Mb/s
    Movie name : Cry Freedom
    Encoded date : UTC 2016-11-18 12:32:34
    Writing application : mkvmerge v8.3.0 ('Over the Horizon') 64bit
    Writing library : libebml v1.3.1 + libmatroska v1.4.2
    Attachments : poster.jpg
    Video
    ID : 1
    Format : AVC
    Format/Info : Advanced Video Codec
    Format profile : High@L4
    Format settings, CABAC : Yes
    Format settings, ReFrames : 4 frames
    Codec ID : V_MPEG4/ISO/AVC
    Duration : 2 h 38 min
    Bit rate mode : Variable
    Bit rate : 13.8 Mb/s
    Maximum bit rate : 15.0 Mb/s
    Width : 1 920 pixels
    Height : 1 080 pixels
    Display aspect ratio : 16:9
    Frame rate mode : Constant
    Frame rate : 23.976 (24000/1001) FPS
    Color space : YUV
    Chroma subsampling : 4:2:0
    Bit depth : 8 bits
    Scan type : Progressive
    Bits/(Pixel*Frame) : 0.277
    Stream size : 15.2 GiB (97%)
    Title : Cry Freedom
    Writing library : x264 core 148 r2623 d5b2374
    Encoding settings : cabac=1 / ref=4 / deblock=1:-1:-1 / analyse=0x3:0x133 / me=umh / subme=9 / psy=1 / psy_rd=1.00:0.15 / mixed_ref=1 / me_range=24 / chroma_me=1 / trellis=2 / 8x8dct=1 / cqm=0 / deadzone=21,11 / fast_pskip=1 / chroma_qp_offset=-3 / threads=34 / lookahead_threads=5 / sliced_threads=0 / nr=150 / decimate=1 / interlaced=0 / bluray_compat=0 / constrained_intra=0 / bframes=8 / b_pyramid=2 / b_adapt=2 / b_bias=0 / direct=3 / weightb=1 / open_gop=0 / weightp=2 / keyint=120 / keyint_min=61 / scenecut=0 / intra_refresh=0 / rc_lookahead=120 / rc=crf / mbtree=1 / crf=18.0 / qcomp=0.60 / qpmin=0 / qpmax=69 / qpstep=4 / vbv_maxrate=15000 / vbv_bufsize=31250 / crf_max=0.0 / nal_hrd=vbr / filler=0 / ip_ratio=1.40 / aq=3:1.00
    Default : Yes
    Forced : No
    Color range : Limited
    Color primaries : BT.709
    Transfer characteristics : BT.709
    Matrix coefficients : BT.709
    Audio #1
    ID : 2
    Format : AC-3
    Format/Info : Audio Coding 3
    Mode extension : CM (complete main)
    Format settings, Endianness : Big
    Codec ID : A_AC3
    Duration : 2 h 38 min
    Bit rate mode : Constant
    Bit rate : 192 kb/s
    Channel(s) : 2 channels
    Channel positions : Front: L R
    Sampling rate : 48.0 kHz
    Frame rate : 31.250 FPS (1536 spf)
    Compression mode : Lossy
    Stream size : 218 MiB (1%)
    Title : VO Rider
    Language : Russian
    Default : Yes
    Forced : No
    Audio #2
    ID : 3
    Format : E-AC-3
    Format/Info : Audio Coding 3
    Format settings, Endianness : Big
    Codec ID : A_EAC3
    Duration : 2 h 38 min
    Bit rate mode : Constant
    Bit rate : 224 kb/s
    Channel(s) : 2 channels
    Channel positions : Front: L R
    Sampling rate : 48.0 kHz
    Frame rate : 187.500 FPS (256 spf)
    Compression mode : Lossy
    Stream size : 254 MiB (2%)
    Title : English
    Language : English
    Default : No
    Forced : No
    Text #1
    ID : 4
    Format : UTF-8
    Codec ID : S_TEXT/UTF8
    Codec ID/Info : UTF-8 Plain Text
    Duration : 2 h 30 min
    Bit rate : 51 b/s
    Count of elements : 2204
    Stream size : 56.9 KiB (0%)
    Title : English
    Language : English
    Default : No
    Forced : No
    Text #2
    ID : 5
    Format : UTF-8
    Codec ID : S_TEXT/UTF8
    Codec ID/Info : UTF-8 Plain Text
    Duration : 2 h 33 min
    Bit rate : 84 b/s
    Count of elements : 1463
    Stream size : 94.6 KiB (0%)
    Title : joshua7
    Language : Russian
    Default : No
    Forced : No
    Menu
    00:00:00.110 : en:00:00:00.110
    00:00:11.180 : en:00:00:11.180
    00:00:18.710 : en:00:00:18.710
    00:01:11.379 : en:00:01:11.379
    00:06:19.494 : en:00:06:19.494
    00:08:14.566 : en:00:08:14.566
    00:09:26.652 : en:00:09:26.652
    00:10:52.820 : en:00:10:52.820
    00:13:40.106 : en:00:13:40.106
    00:17:37.124 : en:00:17:37.124
    00:20:41.132 : en:00:20:41.132
    00:22:01.138 : en:00:22:01.138
    00:23:01.170 : en:00:23:01.170
    00:28:16.183 : en:00:28:16.183
    00:30:26.192 : en:00:30:26.192
    00:31:59.215 : en:00:31:59.215
    00:35:47.232 : en:00:35:47.232
    00:38:37.258 : en:00:38:37.258
    00:42:55.269 : en:00:42:55.269
    00:44:47.299 : en:00:44:47.299
    00:49:53.308 : en:00:49:53.308
    00:51:24.322 : en:00:51:24.322
    00:53:44.345 : en:00:53:44.345
    00:57:32.358 : en:00:57:32.358
    00:59:43.369 : en:00:59:43.369
    01:01:33.383 : en:01:01:33.383
    01:03:51.398 : en:01:03:51.398
    01:06:18.422 : en:01:06:18.422
    01:10:23.433 : en:01:10:23.433
    01:12:13.462 : en:01:12:13.462
    01:17:00.498 : en:01:17:00.498
    01:22:57.514 : en:01:22:57.514
    01:25:38.522 : en:01:25:38.522
    01:26:55.539 : en:01:26:55.539
    01:29:52.569 : en:01:29:52.569
    01:34:50.581 : en:01:34:50.581
    01:36:52.601 : en:01:36:52.601
    01:40:08.609 : en:01:40:08.609
    01:41:27.638 : en:01:41:27.638
    01:46:23.659 : en:01:46:23.659
    01:49:45.694 : en:01:49:45.694
    01:55:38.704 : en:01:55:38.704
    01:57:21.720 : en:01:57:21.720
    02:00:03.737 : en:02:00:03.737
    02:02:51.756 : en:02:02:51.756
    02:05:55.781 : en:02:05:55.781
    02:10:08.816 : en:02:10:08.816
    02:16:03.842 : en:02:16:03.842
    02:20:16.863 : en:02:20:16.863
    02:23:47.877 : en:02:23:47.877
    02:26:11.929 : en:02:26:11.929
    02:34:48.950 : en:02:34:48.950

    Скриншоты

    Скачать .torrent

    Скачать торрент-файл бесплатно и на максимальной скорости!

    Как скачивать? · Что такое торрент? · Рейтинг и ограничения

    !ВНИМАНИЕ!
    Сайт не распространяет и не хранит электронные версии произведений, а занимается лишь лишь предоставлением доступа к создаваемому пользователями каталогу ссылок на торрент-файлы, которые содержат только списки хеш-сумм, убедительная просьба с жалобами обращаться напрямую к пользователю. Файлы для обмена на трекере предоставлены пользователями сайта, и администрация не несёт ответственности за их содержание. Просьба не заливать файлы, защищенные авторскими правами, а также файлы нелегального содержания!


    _________________
    [Профиль] [ЛС]
    Показать сообщения:    
    Ответить на тему

    Текущее время: Сегодня, в 18:26

    Часовой пояс: GMT + 2



    Вы не можете начинать темы
    Вы не можете отвечать на сообщения
    Вы не можете редактировать свои сообщения
    Вы не можете удалять свои сообщения
    Вы не можете голосовать в опросах
    Вы не можете прикреплять файлы к сообщениям
    Вы не можете скачивать файлы