BitTorrentTracker PerecTracker.org
BitTorrentTracker PerecTracker.org
    
Регистрация  ·  Вход
 
 · 
Забыли пароль?

  • Особо опасный преступник / Самый разыскиваемый / Разыскивается преступник / Саботаж 2 / Most Wanted (Дэвид Хоган / David Hogan) [1997, США, боевик, триллер, WEB-DL 1080p] MVO + 2x AVO (Живов, Горчаков) + VO + Ukr + Original Eng + Sub Eng

    Ответить на тему
     
    Автор Сообщение

    Light

    Создавать темы 22-Ноя-2016 14:50

           

    [Цитировать]

    Особо опасный преступник / Самый разыскиваемый / Разыскивается преступник / Саботаж 2 / Most Wanted
    «Sometimes the most patriotic thing a Marine can do... is disobey orders. From most honored to Most Wanted»-Страна: США
    Студия: New Line Cinema, Ivory Way Productions
    Жанр: боевик, триллер
    Год выпуска: 1997
    Продолжительность: 01:38:59
    Перевод 1: Профессиональный (многоголосый закадровый)
    Перевод 2: Авторский (одноголосый закадровый) | Ю. Живов
    Перевод 3: Авторский (одноголосый закадровый) | В. Горчаков
    Перевод 4: Одноголосый закадровый | неизвестный
    Оригинальная аудиодорожка: английский
    Cубтитры: английские
    Режиссер: Дэвид Хоган / David Hogan
    В ролях: Кинен Айвори Уайанс, Роберт Котечки, Рик Крамер, Пол Сорвино, Кенн Уайтакер, Вольфганг Бодисон, Джон Войт, Эдди Велес, Майкл Марич, Саймон Бейкер, Джилл Хеннесси, Эрик Робертс
    Описание: Джеймс Данн, снайпер морской пехоты, участник войны в Ираке, отказался выстрелить в десятилетнего мальчишку и случайно убил сержанта, заставлявшего его это сделать. Данна приговорили к смертной казни, но из тюрьмы он был выкран и получил предложение работать в секретном правительственном подразделении подполковника Кейси.
    Вынужденный согласиться, Джеймс получил первое задание: ликвидировать известного промышленника во время открытия госпиталя для ветеранов. Но до выстрела Данна раздался другой выстрел, сразивший первую леди — жену президента, присутствовавшую на церемонии. Очень быстро Данн понял, что его подставили, чтобы выдать за убийцу-одиночку. Преследуемый врагами, он начинает самостоятельное расследование, в котором ему помогает молодая врач, случайно заснявшая на видео настоящего убийцу.-
    Тип релиза: WEB-DL 1080p
    Контейнер: MKV
    Видео: 1916x812 at 23.976 fps, x264@L4, ~3875 kbps avg
    Аудио 1: Russian: 48 kHz, AC3, 2/0 (L,R) ch, ~192 kbps avg |Многоголосый закадровый|
    Аудио 2: Russian: 48 kHz, AC3, 3/2 (L,C,R,l,r) + LFE ch, ~384 kbps avg |Одноголосый закадровый, Ю. Живов|
    Аудио 3: Russian: 48 kHz, AC3, 2/0 (L,R) ch, ~192 kbps avg |Одноголосый закадровый, В. Горчаков|
    Аудио 4: Russian: 48 kHz, AC3, 2/0 (L,R) ch, ~192 kbps avg |Одноголосый закадровый, неизвестный|
    Аудио 5: Ukrainian: 48 kHz, AC3, 2/0 (L,R) ch, ~192 kbps avg |Многоголосый закадровый, т/к "Интер"|
    Аудио 6: English: 48 kHz, AC3, 3/2 (L,C,R,l,r) + LFE ch, ~384 kbps avg
    Cубтитры: english

    MediaInfo

    General
    Unique ID : 234972104745011651195314318941290399550 (0xB0C5FB34036CEB17A6D275A61ED6873E)
    Complete name : D:\Most.Wanted.1997.1080p.WEB-DL.4xRus.Ukr.Eng.mkv
    Format : Matroska
    Format version : Version 4 / Version 2
    File size : 3.74 GiB
    Duration : 1 h 38 min
    Overall bit rate : 5 414 kb/s
    Movie name : Особо опасный преступник / Most Wanted (1997)
    Encoded date : UTC 2016-11-19 04:42:47
    Writing application : mkvmerge v9.5.0 ('Quiet Fire') 64bit
    Writing library : libebml v1.3.4 + libmatroska v1.4.5
    Cover : Yes
    Attachments : cover.jpg
    Video
    ID : 1
    Format : AVC
    Format/Info : Advanced Video Codec
    Format profile : High@L4
    Format settings, CABAC : Yes
    Format settings, ReFrames : 5 frames
    Codec ID : V_MPEG4/ISO/AVC
    Duration : 1 h 38 min
    Bit rate : 3 875 kb/s
    Width : 1 916 pixels
    Height : 812 pixels
    Display aspect ratio : 2.35:1
    Frame rate mode : Constant
    Frame rate : 23.976 (24000/1001) FPS
    Color space : YUV
    Chroma subsampling : 4:2:0
    Bit depth : 8 bits
    Scan type : Progressive
    Bits/(Pixel*Frame) : 0.104
    Stream size : 2.68 GiB (72%)
    Title : Особо опасный преступник / Most Wanted (1997) WEB-DL 1080p
    Language : English
    Default : Yes
    Forced : No
    Color range : Limited
    Color primaries : BT.709
    Transfer characteristics : BT.709
    Matrix coefficients : BT.709
    Audio #1
    ID : 2
    Format : AC-3
    Format/Info : Audio Coding 3
    Mode extension : CM (complete main)
    Format settings, Endianness : Big
    Codec ID : A_AC3
    Duration : 1 h 38 min
    Bit rate mode : Constant
    Bit rate : 192 kb/s
    Channel(s) : 2 channels
    Channel positions : Front: L R
    Sampling rate : 48.0 kHz
    Frame rate : 31.250 FPS (1536 spf)
    Compression mode : Lossy
    Stream size : 136 MiB (4%)
    Title : Многоголосый
    Language : Russian
    Default : Yes
    Forced : No
    Audio #2
    ID : 3
    Format : AC-3
    Format/Info : Audio Coding 3
    Mode extension : CM (complete main)
    Format settings, Endianness : Big
    Codec ID : A_AC3
    Duration : 1 h 38 min
    Bit rate mode : Constant
    Bit rate : 384 kb/s
    Channel(s) : 6 channels
    Channel positions : Front: L C R, Side: L R, LFE
    Sampling rate : 48.0 kHz
    Frame rate : 31.250 FPS (1536 spf)
    Compression mode : Lossy
    Stream size : 272 MiB (7%)
    Title : Одноголосый, Ю. Живов
    Language : Russian
    Default : No
    Forced : No
    Audio #3
    ID : 4
    Format : AC-3
    Format/Info : Audio Coding 3
    Mode extension : CM (complete main)
    Format settings, Endianness : Big
    Codec ID : A_AC3
    Duration : 1 h 38 min
    Bit rate mode : Constant
    Bit rate : 192 kb/s
    Channel(s) : 2 channels
    Channel positions : Front: L R
    Sampling rate : 48.0 kHz
    Frame rate : 31.250 FPS (1536 spf)
    Compression mode : Lossy
    Stream size : 136 MiB (4%)
    Title : Одноголосый, В. Горчаков
    Language : Russian
    Default : No
    Forced : No
    Audio #4
    ID : 5
    Format : AC-3
    Format/Info : Audio Coding 3
    Mode extension : CM (complete main)
    Format settings, Endianness : Big
    Codec ID : A_AC3
    Duration : 1 h 38 min
    Bit rate mode : Constant
    Bit rate : 192 kb/s
    Channel(s) : 2 channels
    Channel positions : Front: L R
    Sampling rate : 48.0 kHz
    Frame rate : 31.250 FPS (1536 spf)
    Compression mode : Lossy
    Stream size : 136 MiB (4%)
    Title : Одноголосый, неизвестный
    Language : Russian
    Default : No
    Forced : No
    Audio #5
    ID : 6
    Format : AC-3
    Format/Info : Audio Coding 3
    Mode extension : CM (complete main)
    Format settings, Endianness : Big
    Codec ID : A_AC3
    Duration : 1 h 38 min
    Bit rate mode : Constant
    Bit rate : 192 kb/s
    Channel(s) : 2 channels
    Channel positions : Front: L R
    Sampling rate : 48.0 kHz
    Frame rate : 31.250 FPS (1536 spf)
    Compression mode : Lossy
    Stream size : 136 MiB (4%)
    Title : Многоголосый, т/к "Интер"
    Language : Ukrainian
    Default : No
    Forced : No
    Audio #6
    ID : 7
    Format : AC-3
    Format/Info : Audio Coding 3
    Mode extension : CM (complete main)
    Format settings, Endianness : Big
    Codec ID : A_AC3
    Duration : 1 h 38 min
    Bit rate mode : Constant
    Bit rate : 384 kb/s
    Channel(s) : 6 channels
    Channel positions : Front: L C R, Side: L R, LFE
    Sampling rate : 48.0 kHz
    Frame rate : 31.250 FPS (1536 spf)
    Compression mode : Lossy
    Stream size : 272 MiB (7%)
    Language : English
    Default : No
    Forced : No
    Text
    ID : 8
    Format : UTF-8
    Codec ID : S_TEXT/UTF8
    Codec ID/Info : UTF-8 Plain Text
    Duration : 1 h 32 min
    Bit rate : 46 b/s
    Count of elements : 1065
    Stream size : 31.2 KiB (0%)
    Language : English
    Default : No
    Forced : No
    Menu
    00:00:00.000 : en:Chapter 1
    00:03:54.000 : en:Chapter 2
    00:06:13.000 : en:Chapter 3
    00:09:19.000 : en:Chapter 4
    00:13:28.000 : en:Chapter 5
    00:20:43.000 : en:Chapter 6
    00:23:35.000 : en:Chapter 7
    00:28:35.000 : en:Chapter 8
    00:35:07.000 : en:Chapter 9
    00:38:58.000 : en:Chapter 10
    00:42:56.000 : en:Chapter 11
    00:45:35.000 : en:Chapter 12
    00:49:04.000 : en:Chapter 13
    00:51:49.000 : en:Chapter 14
    00:54:15.000 : en:Chapter 15
    00:59:52.000 : en:Chapter 16
    01:04:29.000 : en:Chapter 17
    01:07:35.000 : en:Chapter 18
    01:13:38.000 : en:Chapter 19
    01:16:17.000 : en:Chapter 20
    01:21:32.000 : en:Chapter 21
    01:24:41.000 : en:Chapter 22
    01:27:53.000 : en:Chapter 23
    01:32:09.000 : en:Chapter 24

    Скриншоты




    Скачать .torrent

    Скачать торрент-файл бесплатно и на максимальной скорости!

    Как скачивать? · Что такое торрент? · Рейтинг и ограничения

    !ВНИМАНИЕ!
    Сайт не распространяет и не хранит электронные версии произведений, а занимается лишь лишь предоставлением доступа к создаваемому пользователями каталогу ссылок на торрент-файлы, которые содержат только списки хеш-сумм, убедительная просьба с жалобами обращаться напрямую к пользователю. Файлы для обмена на трекере предоставлены пользователями сайта, и администрация не несёт ответственности за их содержание. Просьба не заливать файлы, защищенные авторскими правами, а также файлы нелегального содержания!


    _________________
    [Профиль] [ЛС]
    Показать сообщения:    
    Ответить на тему

    Текущее время: Сегодня, в 16:24

    Часовой пояс: GMT + 2



    Вы не можете начинать темы
    Вы не можете отвечать на сообщения
    Вы не можете редактировать свои сообщения
    Вы не можете удалять свои сообщения
    Вы не можете голосовать в опросах
    Вы не можете прикреплять файлы к сообщениям
    Вы не можете скачивать файлы