BitTorrentTracker PerecTracker.org
BitTorrentTracker PerecTracker.org
    
Регистрация  ·  Вход
 
 · 
Забыли пароль?

  • Ледокол (Николай Хомерики) [2016, Драма, WEB-DLRip] (iTunes)

    Ответить на тему
     
    Автор Сообщение

    Flirldrerve

    Создавать темы 22-Ноя-2016 10:40

           

    [Цитировать]

    Ледокол-Год выхода: 2016
    Выпущено: Россия
    Жанр: драма
    Продолжительность: 02:03:53-Режиссёр:
    Николай Хомерики-В ролях:
    Пётр Фёдоров, Сергей Пускепалис, Анна Михалкова, Ольга Филимонова, Александр Яценко, Александр Паль, Виталий Хаев, Алексей Барабаш, Дмитрий Муляр, Артур Чиргадзе-Описание:
    Основано на реальных событиях. 1985 год. Навстречу ледоколу «Михаил Громов» движется огромный айсберг. Уходя от столкновения с ним, судно попадает в ледовый плен и оказывается в вынужденном дрейфе вблизи побережья Антарктиды. Вокруг зловещая тишина и жуткий холод. Горючее на исходе… Нервы на пределе… И даже если можно было бы уйти — деваться все равно некуда. У командования ледокола нет права на ошибку. Одно неверное решение — и тяжелые льды раздавят судно…-| | | Сэмпл |-Качество: WEB-DLRip [Ledokol.2016.1080p.WEB-DL.Rus.HDCLUB]
    Формат: AVI
    Видео: 720x304 (2.37:1), 24.000 fps, XviD build 67 ~1291 kbps avg, 0.25 bit/pixel
    Аудио: 48 kHz, AC3 Dolby Digital, 3/2 (L,C,R,l,r) + LFE ch, ~384 kbps
    -

    Скриншоты

    -

    MediaInfo

    Общее
    Полное имя                               : D:\Ledokol_2016_WEB-DLRip_iT_by_Dalemake.avi
    Формат                                   : AVI
    Формат/Информация                        : Audio Video Interleave
    Размер файла                             : 1,46 Гбайт
    Продолжительность                        : 2 ч. 3 м.
    Общий поток                              : 1685 Кбит/сек
    Программа кодирования                    : VirtualDubMod 1.5.10.3 | www.virtualdub-fr.org || (build 2550/release)
    Библиотека кодирования                   : VirtualDubMod build 2550/release
    Видео
    Идентификатор                            : 0
    Формат                                   : MPEG-4 Visual
    Профиль формата                          : Advanced Simple@L5
    Параметр BVOP формата                    : 1
    Параметр QPel формата                    : Нет
    Параметр GMC формата                     : Без точки перехода
    Параметр матрицы формата                 : Выборочная
    Идентификатор кодека                     : XVID
    Идентификатор кодека/Подсказка           : XviD
    Продолжительность                        : 2 ч. 3 м.
    Битрейт                                  : 1292 Кбит/сек
    Ширина                                   : 720 пикселей
    Высота                                   : 304 пикселя
    Соотношение сторон                       : 2,35:1
    Частота кадров                           : 24,000 кадра/сек
    Цветовое пространство                    : YUV
    Субдискретизация насыщенности            : 4:2:0
    Битовая глубина                          : 8 бит
    Тип развёртки                            : Прогрессивная
    Метод сжатия                             : С потерями
    Бит/(Пиксели*Кадры)                      : 0.246
    Размер потока                            : 1,12 Гбайт (77%)
    Библиотека кодирования                   : XviD 67
    Аудио
    Идентификатор                            : 1
    Формат                                   : AC-3
    Формат/Информация                        : Audio Coding 3
    Расширение режима                        : CM (complete main)
    Параметр Endianness формата              : Big
    Идентификатор кодека                     : 2000
    Продолжительность                        : 2 ч. 3 м.
    Вид битрейта                             : Постоянный
    Битрейт                                  : 384 Кбит/сек
    Каналы                                   : 6 каналов
    Расположение каналов                     : Front: L C R, Side: L R, LFE
    Частота                                  : 48,0 КГц
    Битовая глубина                          : 16 бит
    Метод сжатия                             : С потерями
    Размер потока                            : 340 Мбайт (23%)
    Выравнивание                             : Разделение по промежуткам
    Продолжительность промежутка             : 42  мс. (1,00 видеокадр)
    Время предзагрузки промежутка            : 500  мс.
    -
    Скачать .torrent

    Скачать торрент-файл бесплатно и на максимальной скорости!

    Как скачивать? · Что такое торрент? · Рейтинг и ограничения

    !ВНИМАНИЕ!
    Сайт не распространяет и не хранит электронные версии произведений, а занимается лишь лишь предоставлением доступа к создаваемому пользователями каталогу ссылок на торрент-файлы, которые содержат только списки хеш-сумм, убедительная просьба с жалобами обращаться напрямую к пользователю. Файлы для обмена на трекере предоставлены пользователями сайта, и администрация не несёт ответственности за их содержание. Просьба не заливать файлы, защищенные авторскими правами, а также файлы нелегального содержания!


    _________________
    [Профиль] [ЛС]
    Показать сообщения:    
    Ответить на тему

    Текущее время: Сегодня, в 20:07

    Часовой пояс: GMT + 2



    Вы не можете начинать темы
    Вы не можете отвечать на сообщения
    Вы не можете редактировать свои сообщения
    Вы не можете удалять свои сообщения
    Вы не можете голосовать в опросах
    Вы не можете прикреплять файлы к сообщениям
    Вы не можете скачивать файлы