BitTorrentTracker PerecTracker.org
BitTorrentTracker PerecTracker.org
    
Регистрация  ·  Вход
 
 · 
Забыли пароль?

  • Пит и его дракон / Pete\'s Dragon (Дэвид Лоури / David Lowery) [2016, США, фэнтези, приключения, семейный, BDRip-AVC] Dub + Original + Sub (rus, eng)

    Ответить на тему
     
    Автор Сообщение

    rechyn

    Создавать темы 22-Ноя-2016 10:40

           

    [Цитировать]

    Пит и его дракон / Pete's Dragon«Some secrets are too big to keep»-Страна: США
    Жанр: фэнтези, приключения, семейный
    Год выпуска: 2016
    Продолжительность: 01:42:45
    Перевод: Профессиональный (дублированный)
    Оригинальная аудиодорожка: английский
    Субтитры: русские (форс., полные) английские (полные, SDH)
    Навигация по главам: есть
    Режиссер: Дэвид Лоури / David Lowery
    В ролях: Брайс Даллас Ховард (Grace), Роберт Редфорд (Meacham), Оакс Фигли (Pete), Уна Лоуренс (Natalie), Уэс Бентли (Jack), Карл Урбан (Gavin), Исайя Уитлок мл. (Sheriff Gene Dentler), Маркус Хендерсон (Woodrow), Аарон Джексон (Abner), Филип Грив (Bobby), Стив Барр (Deputy Smalls), Киган Карр Франш (Doctor Marquez)
    Описание: В течение многих лет Мистер Мичем забавлял местных детишек сказочными историями о свирепом драконе, обитающим на севере, глубоко в лесах. Для его дочери Грейс все эти истории казались ничем иным как выдумкой, ровно до тех пор, пока она не встретила в лесу маленького мальчика по имени Пит. Пит уже долгое время живет в диком лесу, у него нет ни дома, ни семьи, зато есть замечательный друг - огромный зеленый дракон Эллиот. Грейс решает разгадать историю юного Пита, узнать всю правду о его семье и загадочном драконе, о котором ходит так много слухов и легенд.- -Качество: BDRip-AVC (исходник - BDRemux|Petes.Dragon.2016.1080p.BluRay.REMUX.AVC.DTS-HA.MA.7.1-FGT)
    Формат видео: MKV
    Видео: x264, 1152x480 (2.40:1) 23,976 fps, ~1328 kbps, 0.100 bit/pixel
    Аудио 1: 48 kHz, AC3 Dolby Digital, 3/2 (L,C,R,l,r) + LFE ch, ~448 kbps [русский]
    Аудио 2: 48 kHz, AC3 Dolby Digital, 3/2 (L,C,R,l,r) + LFE ch, ~384 kbps [английский]
    Формат субтитров: softsub (SRT)-MediaInfo | x264 log
    Format : Matroska
    Format version : Version 4 / Version 2
    File size : 1.58 GiB
    Duration : 1h 42 min
    Overall bit rate : 2 204 kb/s
    Movie name : Пит и его дракон / Pete's Dragon (2016) :: AFM ::
    Encoded date : UTC 2016-11-20 11:57:19
    Writing application : mkvmerge v8.3.0 ('Over the Horizon') 32bit
    Writing library : libebml v1.3.1 + libmatroska v1.4.2
    Video
    ID : 1
    Format : AVC
    Format/Info : Advanced Video Codec
    Format profile : High@L4.1
    Format settings, CABAC : Yes
    Format settings, ReFrames : 11 frames
    Codec ID : V_MPEG4/ISO/AVC
    Duration : 1h 42 min
    Bit rate : 1 328 kb/s
    Width : 1 152 pixels
    Height : 480 pixels
    Display aspect ratio : 2.40:1
    Frame rate mode : Constant
    Frame rate : 23.976 (24000/1001) FPS
    Color space : YUV
    Chroma subsampling : 4:2:0
    Bit depth : 8 bits
    Scan type : Progressive
    Bits/(Pixel*Frame) : 0.100
    Stream size : 976 MiB (60%)
    Title : BDRip by AFM
    Writing library : x264 core 148 r2721+55 e19946b t_mod_Custom [8-bit@all X86_64]
    Encoding settings : cabac=1 / ref=11 / deblock=1:-2:-2 / analyse=0x3:0x113 / me=umh / subme=10 / psy=1 / fade_compensate=0.00 / psy_rd=1.00:0.00 / mixed_ref=1 / me_range=32 / chroma_me=1 / trellis=2 / 8x8dct=1 / cqm=0 / deadzone=21,11 / fast_pskip=0 / chroma_qp_offset=-2 / threads=6 / lookahead_threads=1 / sliced_threads=0 / nr=0 / decimate=1 / interlaced=0 / bluray_compat=0 / constrained_intra=0 / fgo=0 / bframes=14 / b_pyramid=2 / b_adapt=2 / b_bias=0 / direct=1 / weightb=1 / open_gop=0 / weightp=2 / keyint=240 / keyint_min=23 / scenecut=40 / intra_refresh=0 / rc_lookahead=40 / rc=crf / mbtree=0 / crf=19.2000 / qcomp=0.65 / qpmin=0:0:0 / qpmax=69:69:69 / qpstep=4 / vbv_maxrate=50000 / vbv_bufsize=62500 / crf_max=0.0 / nal_hrd=none / filler=0 / ip_ratio=1.35 / pb_ratio=1.30 / aq=3:0.80 / aq-sensitivity=10.00 / aq-factor=1.00:1.00:1.00 / aq2=0 / aq3=0 / zones=138950,147823,q=30
    Language : English
    Default : Yes
    Forced : No
    Audio #1
    ID : 2
    Format : AC-3
    Format/Info : Audio Coding 3
    Mode extension : CM (complete main)
    Format settings, Endianness : Big
    Codec ID : A_AC3
    Duration : 1h 42 min
    Bit rate mode : Constant
    Bit rate : 448 kb/s
    Channel(s) : 6 channels
    Channel positions : Front: L C R, Side: L R, LFE
    Sampling rate : 48.0 kHz
    Frame rate : 31.250 FPS (1536 spf)
    Compression mode : Lossy
    Stream size : 329 MiB (20%)
    Title : Dub, AC3 5.1 ~448 kbps
    Language : Russian
    Default : Yes
    Forced : No
    Audio #2
    ID : 3
    Format : AC-3
    Format/Info : Audio Coding 3
    Mode extension : CM (complete main)
    Format settings, Endianness : Big
    Codec ID : A_AC3
    Duration : 1h 42 min
    Bit rate mode : Constant
    Bit rate : 384 kb/s
    Channel(s) : 6 channels
    Channel positions : Front: L C R, Side: L R, LFE
    Sampling rate : 48.0 kHz
    Frame rate : 31.250 FPS (1536 spf)
    Compression mode : Lossy
    Stream size : 282 MiB (17%)
    Title : Original, AC3 5.1 ~384 kbps
    Language : English
    Default : No
    Forced : No
    Text #1
    ID : 4
    Format : UTF-8
    Codec ID : S_TEXT/UTF8
    Codec ID/Info : UTF-8 Plain Text
    Title : forced
    Language : Russian
    Default : Yes
    Forced : No
    Text #2
    ID : 5
    Format : UTF-8
    Codec ID : S_TEXT/UTF8
    Codec ID/Info : UTF-8 Plain Text
    Language : Russian
    Default : No
    Forced : No
    Text #3
    ID : 6
    Format : UTF-8
    Codec ID : S_TEXT/UTF8
    Codec ID/Info : UTF-8 Plain Text
    Language : English
    Default : No
    Forced : No
    Text #4
    ID : 7
    Format : UTF-8
    Codec ID : S_TEXT/UTF8
    Codec ID/Info : UTF-8 Plain Text
    Title : SDH
    Language : English
    Default : No
    Forced : No
    Menu
    00:00:00.000 : en:Family Vacation
    00:06:03.989 : en:The Tale of Dragons
    00:09:46.669 : en:Playtime with Elliot
    00:15:20.128 : en:Forest Ranger Grace
    00:21:28.496 : en:A New Friend
    00:30:23.447 : en:Hospital Escape
    00:36:57.966 : en:Finding Elliot
    00:44:03.057 : en:The Meacham Family
    00:52:28.062 : en:Replaced
    00:56:42.566 : en:The Truth
    01:03:13.832 : en:Capture
    01:10:07.078 : en:Escape Plan
    01:17:17.508 : en:Standoff at the Bridge
    01:26:46.034 : en:Together Again
    01:32:26.750 : en:Epilogue
    01:35:01.362 : en:Credits

    x264

    x264 [info]: frame I:1338 Avg QP:17.33 size: 49265
    x264 [info]: frame P:29144 Avg QP:19.03 size: 17389
    x264 [info]: frame B:117341 Avg QP:21.59 size: 4116
    x264 [info]: consecutive B-frames: 1.9% 1.8% 6.4% 16.1% 19.0% 31.4% 7.5% 2.3% 2.7% 1.8% 4.0% 1.2% 1.8% 1.4% 0.7%
    x264 [info]: mb I I16..4: 7.4% 76.4% 16.2%
    x264 [info]: mb P I16..4: 1.1% 9.6% 1.4% P16..4: 41.0% 25.5% 12.4% 0.0% 0.0% skip: 9.1%
    x264 [info]: mb B I16..4: 0.1% 0.6% 0.1% B16..8: 38.2% 6.6% 1.5% direct: 2.6% skip:50.4% L0:41.1% L1:48.9% BI:10.0%
    x264 [info]: 8x8 transform intra:78.4% inter:69.5%
    x264 [info]: coded y,uvDC,uvAC intra: 82.1% 74.4% 42.7% inter: 12.5% 8.8% 0.9%
    x264 [info]: i16 v,h,dc,p: 16% 13% 6% 65%
    x264 [info]: i8 v,h,dc,ddl,ddr,vr,hd,vl,hu: 10% 9% 5% 9% 14% 14% 13% 12% 14%
    x264 [info]: i4 v,h,dc,ddl,ddr,vr,hd,vl,hu: 8% 8% 3% 11% 17% 15% 14% 11% 13%
    x264 [info]: i8c dc,h,v,p: 36% 29% 19% 16%
    x264 [info]: Weighted P-Frames: Y:5.9% UV:3.4%
    x264 [info]: ref P L0: 56.1% 12.3% 13.8% 5.1% 3.6% 2.7% 2.1% 1.2% 1.0% 0.9% 0.9% 0.1% 0.0%
    x264 [info]: ref B L0: 81.8% 8.6% 4.1% 1.8% 1.3% 0.9% 0.7% 0.4% 0.3% 0.1%
    x264 [info]: ref B L1: 94.5% 5.5%
    x264 [info]: kb/s:1369.78

    Скриншоты

    с названием

    Скачать .torrent

    Скачать торрент-файл бесплатно и на максимальной скорости!

    Как скачивать? · Что такое торрент? · Рейтинг и ограничения

    !ВНИМАНИЕ!
    Сайт не распространяет и не хранит электронные версии произведений, а занимается лишь лишь предоставлением доступа к создаваемому пользователями каталогу ссылок на торрент-файлы, которые содержат только списки хеш-сумм, убедительная просьба с жалобами обращаться напрямую к пользователю. Файлы для обмена на трекере предоставлены пользователями сайта, и администрация не несёт ответственности за их содержание. Просьба не заливать файлы, защищенные авторскими правами, а также файлы нелегального содержания!


    _________________
    [Профиль] [ЛС]
    Показать сообщения:    
    Ответить на тему

    Текущее время: Сегодня, в 14:31

    Часовой пояс: GMT + 2



    Вы не можете начинать темы
    Вы не можете отвечать на сообщения
    Вы не можете редактировать свои сообщения
    Вы не можете удалять свои сообщения
    Вы не можете голосовать в опросах
    Вы не можете прикреплять файлы к сообщениям
    Вы не можете скачивать файлы