BitTorrentTracker PerecTracker.org
BitTorrentTracker PerecTracker.org
    
Регистрация  ·  Вход
 
 · 
Забыли пароль?

  • Заколдованные (Гарник Аразян) [1994, Комедия, DVDRip]

    Ответить на тему
     
    Автор Сообщение

    Flirldrerve

    Создавать темы 21-Ноя-2016 21:50

           

    [Цитировать]

    Заколдованные
    Жанр: Комедия
    Год выпуска: 1994
    Продолжительность: 1:22:53
    Режиссёр: Гарник Аразян
    В ролях: Иннокентий Смоктуновский, Виктор Павлов, Евгений Парамонов, Валерий Филатов, Александр Ткаченок, Александр Владомирский, Ирина Домнинская, Елена Сидорова, Виктор Михайлов, Анна Маланкина, Эдуард Горячий, Юрий Казючиц, Алексей Колокольцев, Анжела Кораблева, Владимир Корпусь, Виктор Манаев, Юлия Высоцкая, Семен Заков, Елена Ковшик, Ирина Цымбал
    Описание: Сатирическое обличительное повествование о нравах и поступках ортодоксальных коммунистов 20-х годов, пришедших впоследствии к руководству сталинским террором. Фильм объединяет четыре новеллы, каждая из которых отличается исторической достоверностью и увлекательным сюжетом.
    Сэмпл: http://multi-up.com/1127782
    Качество видео: DVDRip
    Формат видео: AVI
    Видео: XviD, 1664 Кбит/с, 704x544, 25.000 fps
    Аудио: AC3, 2 ch, 192 Кбит/с, 48.0 KHz

    MediaInfo

    I:\Заколдованные\Zakoldovannie.1994.DVDRip.ExKinoRay.avi
    General
    Complete name : I:\Заколдованные\Zakoldovannie.1994.DVDRip.ExKinoRay.avi
    Format : AVI
    Format/Info : Audio Video Interleave
    File size : 1.08 GiB
    Duration : 1h 22mn
    Overall bit rate : 1 865 Kbps
    Writing application : VirtualDubMod 1.5.10.3 | www.virtualdub-fr.org || (build 2550/release)
    Writing library : VirtualDubMod build 2550/release
    Video #0
    ID : 0
    Format : MPEG-4 Visual
    Format profile : Advanced Simple@L5
    Format settings, BVOP : 1
    Format settings, QPel : No
    Format settings, GMC : No warppoints
    Format settings, Matrix : Default (H.263)
    Codec ID : XVID
    Codec ID/Hint : XviD
    Duration : 1h 22mn
    Bit rate : 1 664 Kbps
    Width : 704 pixels
    Height : 544 pixels
    Display aspect ratio : 1.294
    Frame rate : 25.000 fps
    Color space : YUV
    Chroma subsampling : 4:2:0
    Bit depth : 8 bits
    Scan type : Progressive
    Compression mode : Lossy
    Bits/(Pixel*Frame) : 0.174
    Stream size : 986 MiB (89%)
    Writing library : XviD 1.2.1 (UTC 2008-12-04)
    Audio #1
    ID : 1
    Format : AC-3
    Format/Info : Audio Coding 3
    Mode extension : CM (complete main)
    Format settings, Endianness : Big
    Codec ID : 2000
    Duration : 1h 22mn
    Bit rate mode : Constant
    Bit rate : 192 Kbps
    Channel count : 2 channels
    Channel positions : Front: L R
    Sampling rate : 48.0 KHz
    Bit depth : 16 bits
    Compression mode : Lossy
    Stream size : 114 MiB (10%)
    Alignment : Split accross interleaves
    Interleave, duration : 40 ms (1.00 video frame)
    Interleave, preload duration : 500 ms

    Скриншот c названием фильма

    Скриншоты

    Скачать .torrent

    Скачать торрент-файл бесплатно и на максимальной скорости!

    Как скачивать? · Что такое торрент? · Рейтинг и ограничения

    !ВНИМАНИЕ!
    Сайт не распространяет и не хранит электронные версии произведений, а занимается лишь лишь предоставлением доступа к создаваемому пользователями каталогу ссылок на торрент-файлы, которые содержат только списки хеш-сумм, убедительная просьба с жалобами обращаться напрямую к пользователю. Файлы для обмена на трекере предоставлены пользователями сайта, и администрация не несёт ответственности за их содержание. Просьба не заливать файлы, защищенные авторскими правами, а также файлы нелегального содержания!


    _________________
    [Профиль] [ЛС]
    Показать сообщения:    
    Ответить на тему

    Текущее время: Сегодня, в 14:27

    Часовой пояс: GMT + 2



    Вы не можете начинать темы
    Вы не можете отвечать на сообщения
    Вы не можете редактировать свои сообщения
    Вы не можете удалять свои сообщения
    Вы не можете голосовать в опросах
    Вы не можете прикреплять файлы к сообщениям
    Вы не можете скачивать файлы