BitTorrentTracker PerecTracker.org
BitTorrentTracker PerecTracker.org
    
Регистрация  ·  Вход
 
 · 
Забыли пароль?

  • Самый лучший фильм 2 (Олег Фомин) [2009, комедия, пародия, BDRip-AVC]

    Ответить на тему
     
    Автор Сообщение

    Flirldrerve

    Создавать темы 21-Ноя-2016 13:10

           

    [Цитировать]

    Самый лучший фильм 2
    Жанр: комедия, пародия
    Год выпуска: 2009
    Продолжительность: 01:25:00
    Режиссёр: Олег Фомин
    В ролях: Тимур Батрутдинов, Гарик Харламов, Дмитрий Хрусталев, Олег Верещагин, Михаил Галустян, Дмитрий Нагиев, Александр Баширов, Сергей Лазарев, Екатерина Конисевич, Татьяна Лютаева
    Описание: Четверо закадычных друзей — Моряк, Актер, Мажор и Димати — после долгой разлуки встречаются в московском кафе отметить день рождения Мажора. На сей раз у них есть наличные, чтобы расплатиться с официанткой. И бегать по городу в поисках денег они будут совершенно по другой причине. Мажора похитили и требуют выкуп — миллион евро. Чем друзья будут расплачиваться с бандитами, кто найдет новую любовь, а вместе с ней и приключения на все органы жизнедеятельности, кому придется испытать все тяготы сложного пути шоу-бизнеса к популярности, каково рэпперу кавказской наружности гулять одному по безлюдным улицам?! Но все это впереди, а пока они молоды, красивы, полны сил, надежд и ждут приключений!
    Сэмпл: http://multi-up.com/1127822
    Качество видео: BDRip-AVC (Источник: Собственный диск)
    Формат видео: MKV
    Видео: MPEG-4 AVC, 2016 kbps, 1024x436, 24.000 fps
    Аудио: АС3, 6 ch, 448 kbps, 48 kHz

    MediaInfo

    General
    Unique ID : 173775458842592286784712275019859224248 (0x82BBEF9C48C2EFF99C08979E8E17E6B8)
    Complete name : J:\Torrents\Самый лучший фильм 2 (2009) BDRip-AVC.mkv
    Format : Matroska
    Format version : Version 2
    File size : 1.46 GiB
    Duration : 1h 25mn
    Overall bit rate : 2 466 Kbps
    Movie name : Самый лучший фильм 2 (2009)
    Encoded date : UTC 2016-11-05 17:27:44
    Writing application : DVDFab 9.2.4.4
    Writing library : libebml v0.7.8 + libmatroska v0.8.1
    Video
    ID : 1
    Format : AVC
    Format/Info : Advanced Video Codec
    Format profile : High@L4.1
    Format settings, CABAC : Yes
    Format settings, ReFrames : 2 frames
    Codec ID : V_MPEG4/ISO/AVC
    Duration : 1h 25mn
    Bit rate : 2 016 Kbps
    Width : 1 024 pixels
    Height : 436 pixels
    Display aspect ratio : 2.35:1
    Frame rate mode : Constant
    Frame rate : 24.000 fps
    Color space : YUV
    Chroma subsampling : 4:2:0
    Bit depth : 8 bits
    Scan type : Progressive
    Bits/(Pixel*Frame) : 0.188
    Stream size : 1.17 GiB (80%)
    Writing library : x264 core 142
    Encoding settings : cabac=1 / ref=1 / deblock=1:-1:-1 / analyse=0x3:0 / me=hex / subme=5 / psy=0 / mixed_ref=0 / me_range=16 / chroma_me=1 / trellis=0 / 8x8dct=1 / cqm=0 / deadzone=21,11 / fast_pskip=0 / chroma_qp_offset=0 / threads=2 / lookahead_threads=1 / sliced_threads=0 / nr=0 / decimate=1 / interlaced=0 / bluray_compat=0 / constrained_intra=0 / bframes=2 / b_pyramid=0 / b_adapt=1 / b_bias=0 / direct=1 / weightb=0 / open_gop=0 / weightp=0 / keyint=24 / keyint_min=13 / scenecut=40 / intra_refresh=0 / rc=2pass / mbtree=0 / bitrate=2016 / ratetol=1.0 / qcomp=0.60 / qpmin=0 / qpmax=69 / qpstep=4 / cplxblur=20.0 / qblur=0.5 / ip_ratio=1.40 / pb_ratio=1.30 / aq=1:1.00
    Default : Yes
    Forced : No
    Color range : Limited
    Color primaries : BT.601 NTSC
    Transfer characteristics : BT.709
    Matrix coefficients : BT.601
    Audio
    ID : 2
    Format : AC-3
    Format/Info : Audio Coding 3
    Mode extension : CM (complete main)
    Format settings, Endianness : Big
    Codec ID : A_AC3
    Duration : 1h 25mn
    Bit rate mode : Constant
    Bit rate : 448 Kbps
    Channel(s) : 6 channels
    Channel positions : Front: L C R, Side: L R, LFE
    Sampling rate : 48.0 KHz
    Frame rate : 31.250 fps (1536 spf)
    Compression mode : Lossy
    Stream size : 272 MiB (18%)
    Language : Russian
    Default : Yes
    Forced : No
    Menu
    00:00:00.000 : en:(01)00:00:00:000
    00:05:42.666 : en:(02)00:05:42:666
    00:09:44.500 : en:(03)00:09:44:500
    00:17:02.333 : en:(04)00:17:02:333
    00:20:12.000 : en:(05)00:20:12:000
    00:21:49.625 : en:(06)00:21:49:625
    00:27:24.833 : en:(07)00:27:24:833
    00:33:24.000 : en:(08)00:33:24:000
    00:42:59.541 : en:(09)00:42:59:541
    00:46:48.500 : en:(10)00:46:48:500
    00:51:24.416 : en:(11)00:51:24:416
    00:56:31.416 : en:(12)00:56:31:416
    01:03:44.041 : en:(13)01:03:44:041
    01:09:07.208 : en:(14)01:09:07:208
    01:16:18.416 : en:(15)01:16:18:416
    01:22:49.500 : en:(16)01:22:49:500
    01:24:59.833 : en:(17)01:24:59:833

    Скриншот c названием фильма

    Скриншоты

    Скачать .torrent

    Скачать торрент-файл бесплатно и на максимальной скорости!

    Как скачивать? · Что такое торрент? · Рейтинг и ограничения

    !ВНИМАНИЕ!
    Сайт не распространяет и не хранит электронные версии произведений, а занимается лишь лишь предоставлением доступа к создаваемому пользователями каталогу ссылок на торрент-файлы, которые содержат только списки хеш-сумм, убедительная просьба с жалобами обращаться напрямую к пользователю. Файлы для обмена на трекере предоставлены пользователями сайта, и администрация не несёт ответственности за их содержание. Просьба не заливать файлы, защищенные авторскими правами, а также файлы нелегального содержания!


    _________________
    [Профиль] [ЛС]
    Показать сообщения:    
    Ответить на тему

    Текущее время: Сегодня, в 18:27

    Часовой пояс: GMT + 2



    Вы не можете начинать темы
    Вы не можете отвечать на сообщения
    Вы не можете редактировать свои сообщения
    Вы не можете удалять свои сообщения
    Вы не можете голосовать в опросах
    Вы не можете прикреплять файлы к сообщениям
    Вы не можете скачивать файлы