BitTorrentTracker PerecTracker.org
BitTorrentTracker PerecTracker.org
    
Регистрация  ·  Вход
 
 · 
Забыли пароль?

  • Томас и его друзья: Большая гонка / Thomas & Friends: The Great Race (Дэвид Стотен / David Stoten) [2016, Великобритания, мультфильм, приключения, семейный, детский, полнометражный, DVB] Dub

    Ответить на тему
     
    Автор Сообщение

    Flirldrerve

    Создавать темы 21-Ноя-2016 13:10

           

    [Цитировать]

    Томас и его друзья: Большая гонка / Thomas & Friends: The Great Race
    Страна: Великобритания, Arc Production
    Жанр: Мультфильм, приключения, семейный, детский, полнометражный
    Продолжительность: 01:01:03
    Год выпуска: 2016
    Перевод: Профессиональный (дублированный)
    Русские субтитры: нет
    Режиссёр: Дэвид Стотен / David Stoten
    Роли озвучивали: Марк Морахэн, Джонатан Броадбент, Тина Десай, Тереза Галлахер, Боб Голдинг, Расмус Хардайкер, Джон Хаслер, Стивен Кинмен, Джозеф Мэй, Джо Миллс
    Описание: Присоединяйтесь к Томасу и его новым иностранным друзьям в этом захватывающем музыкальном приключении! На материке планируется к проведению Большое паровозное шоу, и Томас загорается желанием представлять в нем остров Содор. Но взрослые паровозы лишь смеются над ним. Они говорят, что паровозик недостаточно сильный и недостаточно взрослый, чтобы состязаться с лучшими из лучших со всего мира. Конкурентами в гонке будут новейшие локомотивы со всего света, в том числе Рауль из Бразилии, Йонг Бао из Китая, Иван из России и очень яркая Ашима из Индии. Томас всё же начинает подготовку к шоу, но все его планы идут кувырком... Сможет ли наш герой преодолеть все преграды и всё-таки принять участие в долгожданном соревновании?.. Три, два, один... большая гонка начинается!
    Качество: DVB
    Формат: MPG
    Видео: MPEG2, 720x576 (4:3) 25fps, ~ 3 465 Кбит/с, 0.309 bits/pixel
    Аудио: MP2, 2 ch, 192 Кбит/с
    Субтитры: отсутствуют

    Подробные технические данные

    GeneralComplete name : G:\Орел и решка.(12 сезон).Кругосветка.SATRip\Фиш и Чипс\Томас и его друзья. Большая гонка. (2016)_DVB by Thunder.mpgFormat : MPEG-PSFile size : 1.48 GiBDuration : 1 h 1 minOverall bit rate mode : VariableOverall bit rate : 3 465 kb/s
    VideoID : 224 (0xE0)Format : MPEG VideoFormat version : Version 2Format profile : Main@MainFormat settings, BVOP : YesFormat settings, Matrix : CustomFormat settings, GOP : M=3, N=15Format settings, picture st : FrameDuration : 1 h 1 minBit rate mode : VariableBit rate : 3 204 kb/sMaximum bit rate : 9 800 kb/sWidth : 720 pixelsHeight : 576 pixelsDisplay aspect ratio : 4:3Frame rate : 25.000 FPSStandard : PALColor space : YUVChroma subsampling : 4:2:0Bit depth : 8 bitsScan type : InterlacedCompression mode : LossyBits/(Pixel*Frame) : 0.309Time code of first frame : 00:00:00:00Time code source : Group of pictures headerGOP, Open/Closed : OpenGOP, Open/Closed of first f : ClosedStream size : 1.37 GiB (92%)
    AudioID : 192 (0xC0)Format : MPEG AudioFormat version : Version 1Format profile : Layer 2Duration : 1 h 1 minBit rate mode : ConstantBit rate : 192 kb/sChannel(s) : 2 channelsSampling rate : 48.0 kHzCompression mode : LossyStream size : 83.8 MiB (6%)

    Скриншоты


    Скачать .torrent

    Скачать торрент-файл бесплатно и на максимальной скорости!

    Как скачивать? · Что такое торрент? · Рейтинг и ограничения

    !ВНИМАНИЕ!
    Сайт не распространяет и не хранит электронные версии произведений, а занимается лишь лишь предоставлением доступа к создаваемому пользователями каталогу ссылок на торрент-файлы, которые содержат только списки хеш-сумм, убедительная просьба с жалобами обращаться напрямую к пользователю. Файлы для обмена на трекере предоставлены пользователями сайта, и администрация не несёт ответственности за их содержание. Просьба не заливать файлы, защищенные авторскими правами, а также файлы нелегального содержания!


    _________________
    [Профиль] [ЛС]
    Показать сообщения:    
    Ответить на тему

    Текущее время: Сегодня, в 20:07

    Часовой пояс: GMT + 2



    Вы не можете начинать темы
    Вы не можете отвечать на сообщения
    Вы не можете редактировать свои сообщения
    Вы не можете удалять свои сообщения
    Вы не можете голосовать в опросах
    Вы не можете прикреплять файлы к сообщениям
    Вы не можете скачивать файлы