BitTorrentTracker PerecTracker.org
BitTorrentTracker PerecTracker.org
    
Регистрация  ·  Вход
 
 · 
Забыли пароль?

  • Джейсон Борн / Jason Bourne (Пол Гринграсс / Paul Greengrass) [2016, Великобритания, Китай, США, боевик, триллер, BDRip-AVC] Dub + Original + Sub (rus, eng)

    Ответить на тему
     
    Автор Сообщение

    rechyn

    Создавать темы 21-Ноя-2016 13:10

           

    [Цитировать]

    Джейсон Борн / Jason Bourne«Вы знаете его имя»-Страна: Великобритания, Китай, США
    Жанр: боевик, триллер
    Год выпуска: 2016
    Продолжительность: 02:03:11
    Перевод: Профессиональный (дублированный) (BD EUR)
    Оригинальная аудиодорожка: английский
    Субтитры: русские (форс., полные) английские (полные, SDH)
    Навигация по главам: есть
    Режиссер: Пол Гринграсс / Paul Greengrass
    В ролях: Мэтт Дэймон (Jason Bourne), Алисия Викандер (Heather Lee), Томми Ли Джонс (CIA Director Robert Dewey), Венсан Кассель (Asset), Джулия Стайлз (Nicky Parsons), Риз Ахмед (Aaron Kalloor), Ато Эссонда (Craig Jeffers), Скотт Шеперд (Director NI Edwin Russell), Билл Кэмп (Malcolm Smith), Винцец Кифер (Christian Dassault), Стефан Канкен (Baumen), Бен Стиляну (Greek Van Driver)
    Описание: Мир на грани катастрофы, а значит пришло время ему вернуться. Неаполь, Мюнхен, Нью-Йорк - его имя знают повсюду. Элитный суперагент, лучший из лучших, даже в Лас-Вегасе игра пойдет по его правилам. Он - Джейсон Борн.- -Качество: BDRip-AVC (исходник - Blu-ray|JASON_BOURNE_BD_EUR_BLUEBIRD)
    Формат видео: MKV
    Видео: x264, 1150x482 (2.40:1) 23,976 fps, ~2825 kbps, 0.213 bit/pixel
    Аудио 1: 48 kHz, AC3 Dolby Digital, 3/2 (L,C,R,l,r) + LFE ch, ~448 kbps [русский]
    Аудио 2: 48 kHz, AC3 Dolby Digital, 3/2 (L,C,R,l,r) + LFE ch, ~448 kbps [английский]
    Формат субтитров: softsub (SRT)-MediaInfo | x264 log
    Format : Matroska
    Format version : Version 4 / Version 2
    File size : 3.27 GiB
    Duration : 2 h 3 min
    Overall bit rate : 3 796 kb/s
    Movie name : Джейсон Борн / Jason Bourne (2016) :: AFM ::
    Encoded date : UTC 2016-11-18 22:44:30
    Writing application : mkvmerge v8.3.0 ('Over the Horizon') 32bit
    Writing library : libebml v1.3.1 + libmatroska v1.4.2
    Video
    ID : 1
    Format : AVC
    Format/Info : Advanced Video Codec
    Format profile : High@L4.1
    Format settings, CABAC : Yes
    Format settings, ReFrames : 11 frames
    Codec ID : V_MPEG4/ISO/AVC
    Duration : 2 h 3 min
    Bit rate : 2 825 kb/s
    Width : 1 150 pixels
    Height : 482 pixels
    Display aspect ratio : 2.40:1
    Frame rate mode : Constant
    Frame rate : 23.976 (24000/1001) FPS
    Color space : YUV
    Chroma subsampling : 4:2:0
    Bit depth : 8 bits
    Scan type : Progressive
    Bits/(Pixel*Frame) : 0.213
    Stream size : 2.43 GiB (74%)
    Title : BDRip by AFM
    Writing library : x264 core 148 r2721+55 e19946b t_mod_Custom [8-bit@all X86_64]
    Encoding settings : cabac=1 / ref=11 / deblock=1:-3:-2 / analyse=0x3:0x113 / me=umh / subme=10 / psy=1 / fade_compensate=0.00 / psy_rd=1.00:0.00 / mixed_ref=1 / me_range=32 / chroma_me=1 / trellis=2 / 8x8dct=1 / cqm=0 / deadzone=21,11 / fast_pskip=0 / chroma_qp_offset=-2 / threads=6 / lookahead_threads=1 / sliced_threads=0 / nr=0 / decimate=1 / interlaced=0 / bluray_compat=0 / constrained_intra=0 / fgo=0 / bframes=12 / b_pyramid=2 / b_adapt=2 / b_bias=0 / direct=1 / weightb=1 / open_gop=0 / weightp=2 / keyint=240 / keyint_min=23 / scenecut=40 / intra_refresh=0 / rc_lookahead=40 / rc=crf / mbtree=0 / crf=19.0000 / qcomp=0.65 / qpmin=0:0:0 / qpmax=69:69:69 / qpstep=4 / vbv_maxrate=50000 / vbv_bufsize=62500 / crf_max=0.0 / nal_hrd=none / filler=0 / ip_ratio=1.35 / pb_ratio=1.30 / aq=3:0.80 / aq-sensitivity=10.00 / aq-factor=1.00:1.00:1.00 / aq2=0 / aq3=0 / zones=167284,177220,q=30
    Language : English
    Default : Yes
    Forced : No
    Audio #1
    ID : 2
    Format : AC-3
    Format/Info : Audio Coding 3
    Mode extension : CM (complete main)
    Format settings, Endianness : Big
    Codec ID : A_AC3
    Duration : 2 h 3 min
    Bit rate mode : Constant
    Bit rate : 448 kb/s
    Channel(s) : 6 channels
    Channel positions : Front: L C R, Side: L R, LFE
    Sampling rate : 48.0 kHz
    Frame rate : 31.250 FPS (1536 spf)
    Compression mode : Lossy
    Stream size : 395 MiB (12%)
    Title : Dub, AC3 5.1 ~448 kbps
    Language : Russian
    Default : Yes
    Forced : No
    Audio #2
    ID : 3
    Format : AC-3
    Format/Info : Audio Coding 3
    Mode extension : CM (complete main)
    Format settings, Endianness : Big
    Codec ID : A_AC3
    Duration : 2 h 3 min
    Bit rate mode : Constant
    Bit rate : 448 kb/s
    Channel(s) : 6 channels
    Channel positions : Front: L C R, Side: L R, LFE
    Sampling rate : 48.0 kHz
    Frame rate : 31.250 FPS (1536 spf)
    Compression mode : Lossy
    Stream size : 395 MiB (12%)
    Title : Original, AC3 5.1 ~448 kbps
    Language : Russian
    Default : No
    Forced : No
    Text #1
    ID : 4
    Format : UTF-8
    Codec ID : S_TEXT/UTF8
    Codec ID/Info : UTF-8 Plain Text
    Title : forced
    Language : Russian
    Default : Yes
    Forced : No
    Text #2
    ID : 5
    Format : UTF-8
    Codec ID : S_TEXT/UTF8
    Codec ID/Info : UTF-8 Plain Text
    Language : Russian
    Default : No
    Forced : No
    Text #3
    ID : 6
    Format : UTF-8
    Codec ID : S_TEXT/UTF8
    Codec ID/Info : UTF-8 Plain Text
    Language : English
    Default : No
    Forced : No
    Text #4
    ID : 7
    Format : UTF-8
    Codec ID : S_TEXT/UTF8
    Codec ID/Info : UTF-8 Plain Text
    Title : SDH
    Language : English
    Default : No
    Forced : No
    Menu
    00:00:00.000 : en:Chapter 1
    00:04:04.661 : en:Chapter 2
    00:08:21.543 : en:Chapter 3
    00:13:32.687 : en:Chapter 4
    00:18:28.316 : en:Chapter 5
    00:24:07.237 : en:Chapter 6
    00:29:21.259 : en:Chapter 7
    00:36:15.548 : en:Chapter 8
    00:42:20.663 : en:Chapter 9
    00:48:22.441 : en:Chapter 10
    00:55:12.184 : en:Chapter 11
    01:01:09.666 : en:Chapter 12
    01:08:32.483 : en:Chapter 13
    01:16:23.329 : en:Chapter 14
    01:24:45.330 : en:Chapter 15
    01:29:06.550 : en:Chapter 16
    01:37:52.909 : en:Chapter 17
    01:44:26.343 : en:Chapter 18
    01:48:03.727 : en:Chapter 19
    01:54:01.209 : en:Chapter 20

    x264

    x264 [info]: frame I:1208 Avg QP:16.98 size: 58972
    x264 [info]: frame P:43425 Avg QP:18.36 size: 27886
    x264 [info]: frame B:132587 Avg QP:21.33 size: 10526
    x264 [info]: consecutive B-frames: 3.7% 5.7% 12.4% 20.1% 15.8% 26.0% 8.4% 1.2% 2.6% 1.5% 0.9% 0.5% 1.2%
    x264 [info]: mb I I16..4: 7.5% 76.1% 16.4%
    x264 [info]: mb P I16..4: 2.8% 19.2% 2.6% P16..4: 35.1% 23.9% 11.3% 0.0% 0.0% skip: 5.1%
    x264 [info]: mb B I16..4: 0.2% 1.8% 0.2% B16..8: 43.1% 12.3% 2.9% direct: 5.8% skip:33.8% L0:46.4% L1:45.3% BI: 8.3%
    x264 [info]: 8x8 transform intra:78.0% inter:70.7%
    x264 [info]: coded y,uvDC,uvAC intra: 79.2% 80.5% 60.4% inter: 27.3% 22.6% 4.9%
    x264 [info]: i16 v,h,dc,p: 34% 18% 8% 40%
    x264 [info]: i8 v,h,dc,ddl,ddr,vr,hd,vl,hu: 14% 9% 8% 9% 13% 12% 13% 10% 12%
    x264 [info]: i4 v,h,dc,ddl,ddr,vr,hd,vl,hu: 21% 10% 5% 9% 13% 11% 12% 9% 11%
    x264 [info]: i8c dc,h,v,p: 39% 25% 19% 18%
    x264 [info]: Weighted P-Frames: Y:4.9% UV:3.1%
    x264 [info]: ref P L0: 49.2% 8.3% 16.1% 7.0% 5.2% 3.8% 3.2% 2.0% 1.8% 1.6% 1.5% 0.2% 0.0%
    x264 [info]: ref B L0: 73.8% 11.4% 5.8% 2.8% 2.0% 1.5% 1.2% 0.8% 0.5% 0.2%
    x264 [info]: ref B L1: 94.5% 5.5%
    x264 [info]: kb/s:2898.20

    Скриншоты

    с названием

    Скачать .torrent

    Скачать торрент-файл бесплатно и на максимальной скорости!

    Как скачивать? · Что такое торрент? · Рейтинг и ограничения

    !ВНИМАНИЕ!
    Сайт не распространяет и не хранит электронные версии произведений, а занимается лишь лишь предоставлением доступа к создаваемому пользователями каталогу ссылок на торрент-файлы, которые содержат только списки хеш-сумм, убедительная просьба с жалобами обращаться напрямую к пользователю. Файлы для обмена на трекере предоставлены пользователями сайта, и администрация не несёт ответственности за их содержание. Просьба не заливать файлы, защищенные авторскими правами, а также файлы нелегального содержания!


    _________________
    [Профиль] [ЛС]
    Показать сообщения:    
    Ответить на тему

    Текущее время: Сегодня, в 14:31

    Часовой пояс: GMT + 2



    Вы не можете начинать темы
    Вы не можете отвечать на сообщения
    Вы не можете редактировать свои сообщения
    Вы не можете удалять свои сообщения
    Вы не можете голосовать в опросах
    Вы не можете прикреплять файлы к сообщениям
    Вы не можете скачивать файлы