BitTorrentTracker PerecTracker.org
BitTorrentTracker PerecTracker.org
    
Регистрация  ·  Вход
 
 · 
Забыли пароль?

  • Воскрешение / A resurrection (Мэтт Орландо / Matt Orlando) [2012, США, ужасы, триллер, DVDRip] Dub

    Ответить на тему
     
    Автор Сообщение

    Light

    Создавать темы 21-Ноя-2016 13:10

           

    [Цитировать]

    Воскрешение / A resurrection
    Страна: США
    Жанр: ужасы, триллер
    Год выпуска: 2012
    Продолжительность: 01:30:37
    Перевод: Профессиональный (дублированный)
    Субтитры: нет
    Оригинальная аудиодорожка: нет
    Режиссер: Мэтт Орландо / Matt Orlando
    В ролях: Девон Сава (Travis), Майкл Кларк Дункан (Addison), Миша Бартон (Jessie Parker), Джонатан Майкл Траутмэнн (Eli Driggers), Николас Джендл (Brandon), Стюарт Стоун (Nick), Аланна Романски (Tammy), Морган Волк (Dian), Энни Китрал (The bruja), Патрик Де Ледебур (Devon), Мэттью Уиллиг (Vince)
    Описание:
    История о подростке, который похоронил своего родного брата, но не хочет признать и поверить в это. С ним долгое время работает психолог, который пытается ему это объяснить, но подросток на каждом сеансе отрицает факт смерти.
    Вскоре полицейские обнаруживают вскрытую могилу, из которой исчезло тело брата. После этого, по мистическому совпадению, подросток начинает видеть убийства, которые должны совершиться в ближайшее время и рисует их в своих рисунках. Психологи и полиция начинают работать с подростком, но открытие поражает их сознание.
    Семпл/Все раздачи фильма
    Качество видео: DVDRip
    Формат видео: AVI
    Видео: 1013 Kbps, 672x352, 25.000 fps, XviD
    Аудио: 128 Kbps, 48 KHz, 2 ch, MP3 Профессиональный (дублированный)

    МедиаИнфо

    General
    Complete name : E:\Resurrection_2012.avi
    Format : AVI
    Format/Info : Audio Video Interleave
    File size : 746 MiB
    Duration : 1h 30mn
    Overall bit rate : 1 150 Kbps
    Writing application : VirtualDubMod 1.5.10.3 | www.virtualdub-fr.org || (build 2550/release)
    Writing library : VirtualDubMod build 2550/release
    Video
    ID : 0
    Format : MPEG-4 Visual
    Format profile : Advanced Simple@L5
    Format settings, BVOP : Yes
    Format settings, QPel : No
    Format settings, GMC : No warppoints
    Format settings, Matrix : Default (MPEG)
    Codec ID : XVID
    Codec ID/Hint : XviD
    Duration : 1h 30mn
    Bit rate : 1 013 Kbps
    Width : 672 pixels
    Height : 352 pixels
    Display aspect ratio : 1.909
    Frame rate : 25.000 fps
    Resolution : 8 bits
    Colorimetry : 4:2:0
    Scan type : Progressive
    Bits/(Pixel*Frame) : 0.171
    Stream size : 656 MiB (88%)
    Writing library : XviD 73
    Audio
    ID : 1
    Format : MPEG Audio
    Format version : Version 1
    Format profile : Layer 3
    Mode : Joint stereo
    Format_Settings_ModeExtension : MS Stereo
    Codec ID : 55
    Codec ID/Hint : MP3
    Duration : 1h 30mn
    Bit rate mode : Constant
    Bit rate : 128 Kbps
    Channel(s) : 2 channels
    Sampling rate : 48.0 KHz
    Stream size : 82.8 MiB (11%)
    Alignment : Aligned on interleaves
    Interleave, duration : 40 ms (1.00 video frame)
    Interleave, preload duration : 504 ms

    Скриншоты

    Скачать .torrent

    Скачать торрент-файл бесплатно и на максимальной скорости!

    Как скачивать? · Что такое торрент? · Рейтинг и ограничения

    !ВНИМАНИЕ!
    Сайт не распространяет и не хранит электронные версии произведений, а занимается лишь лишь предоставлением доступа к создаваемому пользователями каталогу ссылок на торрент-файлы, которые содержат только списки хеш-сумм, убедительная просьба с жалобами обращаться напрямую к пользователю. Файлы для обмена на трекере предоставлены пользователями сайта, и администрация не несёт ответственности за их содержание. Просьба не заливать файлы, защищенные авторскими правами, а также файлы нелегального содержания!


    _________________
    [Профиль] [ЛС]
    Показать сообщения:    
    Ответить на тему

    Текущее время: Сегодня, в 00:20

    Часовой пояс: GMT + 2



    Вы не можете начинать темы
    Вы не можете отвечать на сообщения
    Вы не можете редактировать свои сообщения
    Вы не можете удалять свои сообщения
    Вы не можете голосовать в опросах
    Вы не можете прикреплять файлы к сообщениям
    Вы не можете скачивать файлы