BitTorrentTracker PerecTracker.org
BitTorrentTracker PerecTracker.org
    
Регистрация  ·  Вход
 
 · 
Забыли пароль?

  • Это было в Донбассе (Леонид Луков) [1945, драма, военный, экранизация, DVDRip]

    Ответить на тему
     
    Автор Сообщение

    Light

    Создавать темы 05-Июл-2015 21:53

           

    [Цитировать]

    Это было в ДонбассеГод выпуска: 1945.
    Жанр: драма, военный, экранизация.
    Продолжительность: 01:36:33.
    Режиссер: Леонид Луков.
    В ролях:
    Татьяна Окуневская, Елена Тяпкина, Вера Алтайская, Елена Измайлова, Зоя Жукова, Иван Пельтцер, Владимир Колчин, Борис Пославский, Владимир Балашов, Вячеслав Дугин, Иван Переверзев, Анатолий Елисеев, Самуил Дитлович, Генрих Грайф, Константин Карельских.
    Описание:
    Героическая киноповесть по литературным материалам Бориса Горбатова.
    О юных защитниках Донбасса, боровшихся против фашистов в годы Великой Отечественной войны.

    Доп. информация:
    Страна: СССР .
    Киностудия: Союздетфильм.
    Премьера: 11 июля 1945 года.
    Авторы сценария: Борис Горбатов, Михаил Блейман, Сергей Антонов
    Оператор: Александр Гинцбург.
    Композитор: Никита Богословский.
    Художники: Сергей Козловский, Мориц Уманский, С. Кузнецов.

    Еще постеры

    Релиз
    Рип с этой раздачи.
    Большое спасибо AVV_UA за предоставленый DVD для рипа!!!

    Качество: DVDRip
    Формат: AVI
    Видео: 688x528 (1.30:1), 25 fps, XviD build 73 ~1980 kbps avg, 0.22 bit/pixel
    Аудио: 48 kHz, AC3 Dolby Digital, 1/0 (C) ch, ~192 kbps

    Отчет MI

    General
    Complete name : Eto.bylo.v.Donbasse.1945.XviD.DVDRip.fenixclub_1.47.avi
    Format : AVI
    Format/Info : Audio Video Interleave
    File size : 1.47 GiB
    Duration : 1h 36mn
    Overall bit rate : 2 183 Kbps
    Writing application : VirtualDubMod 1.5.10.3 | www.virtualdub-fr.org || (build 2550/release)
    Writing library : VirtualDubMod build 2550/release
    Video
    ID : 0
    Format : MPEG-4 Visual
    Format profile : Advanced Simple@L5
    Format settings, BVOP : 2
    Format settings, QPel : No
    Format settings, GMC : No warppoints
    Format settings, Matrix : Custom
    Codec ID : XVID
    Codec ID/Hint : XviD
    Duration : 1h 36mn
    Bit rate : 1 981 Kbps
    Width : 688 pixels
    Height : 528 pixels
    Display aspect ratio : 4:3
    Frame rate : 25.000 fps
    Color space : YUV
    Chroma subsampling : 4:2:0
    Bit depth : 8 bits
    Scan type : Progressive
    Compression mode : Lossy
    Bits/(Pixel*Frame) : 0.218
    Stream size : 1.34 GiB (91%)
    Writing library : XviD 73
    Audio
    ID : 1
    Format : AC-3
    Format/Info : Audio Coding 3
    Mode extension : CM (complete main)
    Format settings, Endianness : Big
    Codec ID : 2000
    Duration : 1h 36mn
    Bit rate mode : Constant
    Bit rate : 192 Kbps
    Channel(s) : 1 channel
    Channel positions : Front: C
    Sampling rate : 48.0 KHz
    Compression mode : Lossy
    Stream size : 133 MiB (9%)
    Alignment : Split accross interleaves
    Interleave, duration : 40 ms (1.00 video frame)
    Interleave, preload duratio : 500 ms.
    Скриншоты

    Альтернативный хост

    Скачать .torrent

    Скачать торрент-файл бесплатно и на максимальной скорости!

    Как скачивать? · Что такое торрент? · Рейтинг и ограничения

    !ВНИМАНИЕ!
    Сайт не распространяет и не хранит электронные версии произведений, а занимается лишь лишь предоставлением доступа к создаваемому пользователями каталогу ссылок на торрент-файлы, которые содержат только списки хеш-сумм, убедительная просьба с жалобами обращаться напрямую к пользователю. Файлы для обмена на трекере предоставлены пользователями сайта, и администрация не несёт ответственности за их содержание. Просьба не заливать файлы, защищенные авторскими правами, а также файлы нелегального содержания!


    _________________
    [Профиль] [ЛС]
    Показать сообщения:    
    Ответить на тему

    Текущее время: Сегодня, в 00:09

    Часовой пояс: GMT + 2



    Вы не можете начинать темы
    Вы не можете отвечать на сообщения
    Вы не можете редактировать свои сообщения
    Вы не можете удалять свои сообщения
    Вы не можете голосовать в опросах
    Вы не можете прикреплять файлы к сообщениям
    Вы не можете скачивать файлы