BitTorrentTracker PerecTracker.org
BitTorrentTracker PerecTracker.org
    
Регистрация  ·  Вход
 
 · 
Забыли пароль?

  • Кебаб и гороскоп / Kebab i horoskop (Гжегош Ярошук / Grzegorz Jaroszuk) [2014, Польша, комедия, драма, HDTVRip] Sub Rus + Original Pol

    Ответить на тему
     
    Автор Сообщение

    Light

    Создавать темы 21-Ноя-2016 13:10

           

    [Цитировать]

    Кебаб и гороскоп / Kebab i horoskop
    Страна: Польша
    Жанр: комедия, драма
    Год выпуска: 2014
    Продолжительность: 01:08:55-Перевод: Субтитры Professor (при помощи m_holodkowski, Von Negoziant, slsr21)
    Cубтитры: русские
    Оригинальная аудиодорожка: польский-Режиссер: Гжегош Ярошук / Grzegorz Jaroszuk-В ролях: Бартоломей Топа, Петр Журавский, Томаш Шухардт, Юстина Василевская, Барбара Кужай, Анджей Желинский, Дорота Коляк-Описание: Два афериста устраиваются консультантами по менеджменту в находящийся на грани закрытия магазин ковров.-Доп. информация: -Сэмпл: https://www.sendspace.com/file/3h4f6t-Качество видео: HDTVRip
    Формат видео: MKV-Видео: AVC, 720x304, 2.35:1, 25.000 FPS, 1 224 kb/s
    Аудио: AC-3, 48.0 kHz, 192 kb/s, 2 channels
    Формат субтитров: softsub (SSA/ASS)

    MediaInfo

    General
    Unique ID : 143372527781643388119656572133130620361 (0x6BDC8B60CB5FC17E14ACC6A581A7CDC9)
    Complete name : Kebab.i.horoskop.2014.HDTV.x264.mkv
    Format : Matroska
    Format version : Version 4 / Version 2
    File size : 689 MiB
    Duration : 1 h 8 min
    Overall bit rate : 1 398 kb/s
    Encoded date : UTC 2016-11-17 11:44:37
    Writing application : mkvmerge v9.3.1 ('Mask Machine') 64bit
    Writing library : libebml v1.3.4 + libmatroska v1.4.5
    Video
    ID : 1
    Format : AVC
    Format/Info : Advanced Video Codec
    Format profile : High@L4.1
    Format settings, CABAC : Yes
    Format settings, ReFrames : 5 frames
    Codec ID : V_MPEG4/ISO/AVC
    Duration : 1 h 8 min
    Bit rate : 1 224 kb/s
    Width : 720 pixels
    Height : 304 pixels
    Display aspect ratio : 2.35:1
    Frame rate mode : Constant
    Frame rate : 25.000 FPS
    Color space : YUV
    Chroma subsampling : 4:2:0
    Bit depth : 8 bits
    Scan type : Progressive
    Bits/(Pixel*Frame) : 0.224
    Stream size : 594 MiB (86%)
    Writing library : x264 core 146 r2538bm 121396c
    Encoding settings : cabac=1 / ref=5 / deblock=1:0:0 / analyse=0x3:0x113 / me=umh / subme=8 / psy=1 / psy_rd=1.00:0.00 / mixed_ref=1 / me_range=16 / chroma_me=1 / trellis=1 / 8x8dct=1 / cqm=0 / deadzone=21,11 / fast_pskip=1 / chroma_qp_offset=-2 / threads=6 / lookahead_threads=1 / sliced_threads=0 / nr=0 / decimate=1 / interlaced=0 / bluray_compat=0 / constrained_intra=0 / bframes=3 / b_pyramid=2 / b_adapt=2 / b_bias=0 / direct=3 / weightb=1 / open_gop=0 / weightp=2 / keyint=250 / keyint_min=25 / scenecut=40 / intra_refresh=0 / rc_lookahead=50 / rc=abr / mbtree=1 / bitrate=1224 / ratetol=1.0 / qcomp=0.60 / qpmin=0 / qpmax=69 / qpstep=4 / ip_ratio=1.40 / aq=1:1.00
    Language : English
    Default : Yes
    Forced : No
    Audio
    ID : 2
    Format : AC-3
    Format/Info : Audio Coding 3
    Mode extension : CM (complete main)
    Format settings, Endianness : Big
    Codec ID : A_AC3
    Duration : 1 h 8 min
    Bit rate mode : Constant
    Bit rate : 192 kb/s
    Channel(s) : 2 channels
    Channel positions : Front: L R
    Sampling rate : 48.0 kHz
    Frame rate : 31.250 FPS (1536 spf)
    Compression mode : Lossy
    Stream size : 94.6 MiB (14%)
    Default : Yes
    Forced : No
    Text
    ID : 3
    Format : ASS
    Codec ID : S_TEXT/ASS
    Codec ID/Info : Advanced Sub Station Alpha
    Duration : 1 h 5 min
    Bit rate : 83 b/s
    Count of elements : 496
    Compression mode : Lossless
    Stream size : 39.9 KiB (0%)
    Default : Yes
    Forced : No

    Скриншот c названием фильма

    Скриншоты

    Скачать .torrent

    Скачать торрент-файл бесплатно и на максимальной скорости!

    Как скачивать? · Что такое торрент? · Рейтинг и ограничения

    !ВНИМАНИЕ!
    Сайт не распространяет и не хранит электронные версии произведений, а занимается лишь лишь предоставлением доступа к создаваемому пользователями каталогу ссылок на торрент-файлы, которые содержат только списки хеш-сумм, убедительная просьба с жалобами обращаться напрямую к пользователю. Файлы для обмена на трекере предоставлены пользователями сайта, и администрация не несёт ответственности за их содержание. Просьба не заливать файлы, защищенные авторскими правами, а также файлы нелегального содержания!


    _________________
    [Профиль] [ЛС]
    Показать сообщения:    
    Ответить на тему

    Текущее время: Сегодня, в 14:33

    Часовой пояс: GMT + 2



    Вы не можете начинать темы
    Вы не можете отвечать на сообщения
    Вы не можете редактировать свои сообщения
    Вы не можете удалять свои сообщения
    Вы не можете голосовать в опросах
    Вы не можете прикреплять файлы к сообщениям
    Вы не можете скачивать файлы