BitTorrentTracker PerecTracker.org
BitTorrentTracker PerecTracker.org
    
Регистрация  ·  Вход
 
 · 
Забыли пароль?

  • Джейсон Борн / Jason Bourne (Пол Гринграсс / Paul Greengrass ) [2016, США, Боевик, триллер, BDRip, HD (720p)] DUB + Original + sub (rus, ukr, eng)

    Ответить на тему
     
    Автор Сообщение

    rechyn

    Создавать темы 19-Ноя-2016 22:20

           

    [Цитировать]

    Джейсон Борн / Jason Bourne
    «Вы знаете его имя»
    -Год выпуска: 2016
    Страна: США
    Жанр: Боевик, триллер
    Продолжительность: 02:03:11
    Перевод: Дублированный (Blu-ray CEE)
    Оригинальная аудиодорожка: Есть
    Cубтитры: Русские форсированные, Украинские форсированные, Русские, Украинские, Английские, Английские SDH
    Режиссёр: Пол Гринграсс
    Сценарий: Пол Гринграсс, Кристофер Раус, Роберт Ладлэм
    Продюсер: Мэтт Дэймон, Грегори Гудман, Пол Гринграсс
    Оператор: Бэрри Экройд
    Композитор: Дэвид Бакли, Джон Пауэлл
    Художник: Пол Кирби, Аманда Леггатт, Джо Ховард
    Монтаж: Кристофер Раус
    В ролях: Мэтт Дэймон, Алисия Викандер, Томми Ли Джонс, Венсан Кассель, Джулия Стайлз, Риз Ахмед, Ато Эссонда, Скотт Шеперд, Билл Кэмп, Винцец Кифер
    Бюджет: $120 000 000
    Сборы в США: $162 192 920
    Сборы в мире: + $253 050 504 = $415 243 424
    Сборы в России: $4 135 608
    Мировая премьера: 3 июля 2016
    Премьера (РФ): 1 сентября 2016, «UPI»
    Описание: Мир на грани катастрофы, а значит пришло время ему вернуться. Неаполь, Мюнхен, Нью-Йорк — его имя знают повсюду. Элитный суперагент, лучший из лучших, даже в Лас-Вегасе игра пойдет по его правилам. Он — Джейсон Борн.-Качество исходника: Blu-Ray (HDClub)
    Качество: BDRip
    Тип: HD (720p)
    Контейнер: M4V
    Видео: H.264, 1280x544, 2.35:1, 3 500 Kbps, 23.976 fps
    Аудио 1: Русский/Дублированный (Blu-ray CEE), AAC / 2.0 / 160 Kbps / 48.0 KHz
    Аудио 2: Английский/Оригинальная дорожка , AAC / 2.0 / 160 Kbps / 48.0 KHz
    Аудио 3: Русский/Дублированный (Blu-ray CEE), AC-3 / 5.1 / 640 Kbps / 48.0 KHz
    Аудио 4: Английский/Оригинальная дорожка , AC-3 / 5.1 / 640 Kbps / 48.0 KHz
    Субтитры 1: Русские форсированные
    Субтитры 2: Украинские форсированные
    Субтитры 3: Русские полные
    Субтитры 4: Украинские полные
    Субтитры 5: Английские полные
    Субтитры 6: Английские полные
    -

    iTunes Meta Tags

    Sort Name: Jason Bourne
    XID: Apple:vendor_id:2016-854942
    contentID: 1135595430
    Copyright: © 2016 Universal Studios. All Rights Reserved.
    Screenwriters: Пол Гринграсс, Кристофер Раус, Роберт Ладлэм
    Producers: Мэтт Дэймон, Грегори Гудман, Пол Гринграсс
    Director: Пол Гринграсс
    Cast: Мэтт Дэймон, Алисия Викандер, Джулия Стайлз, Томми Ли Джонс, Риз Ахмед, Венсан Кассель, Камиль Лемежевский, Билл Кэмп, Нив Гачев, Марк Энтони Джастис
    Studio: Universal Pictures
    Rating: 4
    Long Description: Мир на грани катастрофы, а значит пришло время ему вернуться. Неаполь, Мюнхен, Нью-Йорк - его имя знают повсюду. Элитный суперагент, лучший из лучших, даже в Лас-Вегасе игра пойдет по его правилам. Он - Джейсон Борн.
    Description: Мир на грани катастрофы, а значит пришло время ему вернуться. Неаполь, Мюнхен, Нью-Йорк - его имя знают повсюду. Элитный суперагент, лучший из лучших, даже в Лас-Вегасе игра пойдет по его правилам. Он - Джейсон Борн.
    Release Date: 2016-07-27T08:00:00Z
    Genre: Action & Adventure
    Artist: Paul Greengrass
    Name: Jason Bourne

    MediaInfo

    General
    Complete name : /Users/imac/HandBrake/Jason Bourne (2016) (720p HD).m4v
    Format : MPEG-4
    Codec ID : M4V
    File size : 4.39 GiB
    Duration : 2h 3mn
    Overall bit rate mode : Variable
    Overall bit rate : 5 106 Kbps
    Movie name : Jason Bourne
    Performer : Paul Greengrass
    Director : Пол Гринграсс
    Actor : Мэтт Дэймон / Алисия Викандер / Джулия Стайлз / Томми Ли Джонс / Риз Ахмед / Венсан Кассель / Камиль Лемежевский / Билл Кэмп / Нив Гачев / Марк Энтони Джастис
    Screenplay by : Пол Гринграсс / Кристофер Раус / Роберт Ладлэм
    Producer : Мэтт Дэймон / Грегори Гудман / Пол Гринграсс
    Production studio : Universal Pictures
    Genre : Action & Adventure
    ContentType : Short Film
    Description : Мир на грани катастрофы, а значит пришло время ему вернуться. Неаполь, Мюнхен, Нью-Йорк - его имя знают повсюду. Элитный суперагент, лучший из лучших, даже в Лас-Вегасе игра пойдет по его правилам. Он - Джейсон Борн.
    Recorded date : UTC 2016-07-27 08:00:00
    Encoded date : UTC 2016-11-19 14:48:21
    Tagged date : UTC 2016-11-19 14:50:47
    Copyright : © 2016 Universal Studios. All Rights Reserved.
    Cover : Yes
    Rating : None
    Title/Sort : Jason Bourne
    LongDescription : Мир на грани катастрофы, а значит пришло время ему вернуться. Неаполь, Мюнхен, Нью-Йорк - его имя знают повсюду. Элитный суперагент, лучший из лучших, даже в Лас-Вегасе игра пойдет по его правилам. Он - Джейсон Борн.
    HDVideo : Yes
    AppleStoreCatalogID : 1135595430
    Vendor : Apple:vendor_id:2016-854942
    ContentRating : mpaa|PG-13|300|
    Video #1
    ID : 1
    Format : AVC
    Format/Info : Advanced Video Codec
    Format profile : High@L3.1
    Format settings, CABAC : No
    Format settings, ReFrames : 3 frames
    Codec ID : avc1
    Codec ID/Info : Advanced Video Coding
    Duration : 2h 3mn
    Source duration : 2h 3mn
    Bit rate : 3 500 Kbps
    Width : 1 280 pixels
    Height : 544 pixels
    Display aspect ratio : 2.35:1
    Frame rate mode : Variable
    Frame rate : 23.976 fps
    Minimum frame rate : 23.810 fps
    Maximum frame rate : 24.272 fps
    Color space : YUV
    Chroma subsampling : 4:2:0
    Bit depth : 8 bits
    Scan type : Progressive
    Bits/(Pixel*Frame) : 0.210
    Stream size : 3.01 GiB (68%)
    Source stream size : 3.01 GiB (68%)
    Title : Main Program
    Writing library : x264 core 142 r2479 dd79a61
    Encoding settings : cabac=0 / ref=3 / deblock=1:-3:-3 / analyse=0x3:0x113 / me=umh / subme=9 / psy=1 / psy_rd=1.00:0.15 / mixed_ref=1 / me_range=32 / chroma_me=1 / trellis=0 / 8x8dct=1 / cqm=0 / deadzone=21,11 / fast_pskip=0 / chroma_qp_offset=-2 / threads=36 / lookahead_threads=3 / sliced_threads=0 / nr=0 / decimate=0 / interlaced=0 / bluray_compat=0 / constrained_intra=0 / bframes=3 / b_pyramid=0 / b_adapt=2 / b_bias=0 / direct=1 / weightb=0 / open_gop=0 / weightp=0 / keyint=240 / keyint_min=24 / scenecut=40 / intra_refresh=0 / rc_lookahead=40 / rc=2pass / mbtree=1 / bitrate=3500 / ratetol=1.0 / qcomp=0.65 / qpmin=0 / qpmax=69 / qpstep=4 / cplxblur=20.0 / qblur=0.5 / vbv_maxrate=9500 / vbv_bufsize=9500 / nal_hrd=none / filler=0 / ip_ratio=1.40 / aq=1:1.10
    Language : English
    Encoded date : UTC 2016-11-19 14:48:21
    Tagged date : UTC 2016-11-19 14:48:26
    Color range : Limited
    Color primaries : BT.709
    Transfer characteristics : BT.709
    Matrix coefficients : BT.709
    Video #2
    ID : 13
    Format : JPEG
    Codec ID : jpeg
    Duration : 2h 3mn
    Bit rate mode : Variable
    Bit rate : 1 161 bps
    Width : 640 pixels
    Height : 272 pixels
    Display aspect ratio : 2.35:1
    Frame rate mode : Variable
    Frame rate : 0.003 fps
    Minimum frame rate : 0.002 fps
    Maximum frame rate : 0.005 fps
    Color space : YUV
    Chroma subsampling : 4:2:0
    Bit depth : 8 bits
    Compression mode : Lossy
    Bits/(Pixel*Frame) : 2.223
    Stream size : 945 KiB (0%)
    Title : Chapter Images
    Language : English
    Encoded date : UTC 2016-11-19 14:49:07
    Tagged date : UTC 2016-11-19 14:49:07
    Audio #1
    ID : 2
    Format : AAC
    Format/Info : Advanced Audio Codec
    Format profile : LC
    Codec ID : 40
    Duration : 2h 3mn
    Bit rate mode : Variable
    Bit rate : 160 Kbps
    Maximum bit rate : 238 Kbps
    Channel(s) : 2 channels
    Channel positions : Front: L R
    Sampling rate : 48.0 KHz
    Compression mode : Lossy
    Stream size : 141 MiB (3%)
    Title : Russian Stereo
    Language : Russian
    Encoded date : UTC 2016-11-19 14:48:21
    Tagged date : UTC 2016-11-19 14:49:02
    Audio #2
    ID : 3
    Format : AAC
    Format/Info : Advanced Audio Codec
    Format profile : LC
    Codec ID : 40
    Duration : 2h 3mn
    Bit rate mode : Variable
    Bit rate : 160 Kbps
    Maximum bit rate : 231 Kbps
    Channel(s) : 2 channels
    Channel positions : Front: L R
    Sampling rate : 48.0 KHz
    Compression mode : Lossy
    Stream size : 141 MiB (3%)
    Title : English Stereo
    Language : English
    Encoded date : UTC 2016-11-19 14:48:21
    Tagged date : UTC 2016-11-19 14:49:02
    Audio #3
    ID : 4
    Format : AC-3
    Format/Info : Audio Coding 3
    Mode extension : CM (complete main)
    Format settings, Endianness : Big
    Codec ID : ac-3
    Duration : 2h 3mn
    Bit rate mode : Constant
    Bit rate : 640 Kbps
    Channel(s) : 6 channels
    Channel positions : Front: L C R, Side: L R, LFE
    Sampling rate : 48.0 KHz
    Bit depth : 16 bits
    Compression mode : Lossy
    Stream size : 564 MiB (13%)
    Title : Russian DD 5.1
    Language : Russian
    Encoded date : UTC 2016-11-19 14:48:21
    Tagged date : UTC 2016-11-19 14:49:02
    Audio #4
    ID : 5
    Format : AC-3
    Format/Info : Audio Coding 3
    Mode extension : CM (complete main)
    Format settings, Endianness : Big
    Codec ID : ac-3
    Duration : 2h 3mn
    Bit rate mode : Constant
    Bit rate : 640 Kbps
    Channel(s) : 6 channels
    Channel positions : Front: L C R, Side: L R, LFE
    Sampling rate : 48.0 KHz
    Bit depth : 16 bits
    Compression mode : Lossy
    Stream size : 564 MiB (13%)
    Title : English DD 5.1
    Language : English
    Encoded date : UTC 2016-11-19 14:48:21
    Tagged date : UTC 2016-11-19 14:49:02
    Text #1
    ID : 6
    Format : Timed Text
    Muxing mode : sbtl
    Codec ID : tx3g
    Duration : 1h 52mn
    Bit rate mode : Variable
    Bit rate : 3 bps
    Stream size : 2.10 KiB (0%)
    Title : Russian forced
    Language : Russian
    Encoded date : UTC 2016-11-19 14:48:21
    Tagged date : UTC 2016-11-19 14:48:57
    Text #2
    ID : 7
    Format : Timed Text
    Muxing mode : sbtl
    Codec ID : tx3g
    Duration : 1h 52mn
    Bit rate mode : Variable
    Bit rate : 3 bps
    Stream size : 2.32 KiB (0%)
    Title : Ukrainian forced
    Language : Ukrainian
    Encoded date : UTC 2016-11-19 14:48:21
    Tagged date : UTC 2016-11-19 14:48:57
    Text #3
    ID : 8
    Format : Timed Text
    Muxing mode : sbtl
    Codec ID : tx3g
    Duration : 1h 53mn
    Bit rate mode : Variable
    Bit rate : 69 bps
    Stream size : 58.0 KiB (0%)
    Title : Russian full
    Language : Russian
    Encoded date : UTC 2016-11-19 14:48:21
    Tagged date : UTC 2016-11-19 14:48:59
    Text #4
    ID : 9
    Format : Timed Text
    Muxing mode : sbtl
    Codec ID : tx3g
    Duration : 1h 53mn
    Bit rate mode : Variable
    Bit rate : 75 bps
    Stream size : 62.7 KiB (0%)
    Title : Ukrainian full
    Language : Ukrainian
    Encoded date : UTC 2016-11-19 14:48:21
    Tagged date : UTC 2016-11-19 14:48:59
    Text #5
    ID : 10
    Format : Timed Text
    Muxing mode : sbtl
    Codec ID : tx3g
    Duration : 1h 53mn
    Bit rate mode : Variable
    Bit rate : 43 bps
    Stream size : 35.6 KiB (0%)
    Title : English full
    Language : English
    Encoded date : UTC 2016-11-19 14:48:21
    Tagged date : UTC 2016-11-19 14:48:59
    Text #6
    ID : 11
    Format : Timed Text
    Muxing mode : sbtl
    Codec ID : tx3g
    Duration : 1h 53mn
    Bit rate mode : Variable
    Bit rate : 49 bps
    Stream size : 41.1 KiB (0%)
    Title : English SDH
    Language : English
    Encoded date : UTC 2016-11-19 14:48:21
    Tagged date : UTC 2016-11-19 14:48:59
    Menu #1
    00:00:00.000 : Chapter 1
    00:04:04.661 : Chapter 2
    00:08:21.543 : Chapter 3
    00:13:32.687 : Chapter 4
    00:18:28.316 : Chapter 5
    00:24:07.237 : Chapter 6
    00:29:21.259 : Chapter 7
    00:36:15.548 : Chapter 8
    00:42:20.663 : Chapter 9
    00:48:22.441 : Chapter 10
    00:55:12.184 : Chapter 11
    01:01:09.666 : Chapter 12
    01:08:32.483 : Chapter 13
    01:16:23.329 : Chapter 14
    01:24:45.330 : Chapter 15
    01:29:06.550 : Chapter 16
    01:37:52.909 : Chapter 17
    01:44:26.343 : Chapter 18
    01:48:03.727 : Chapter 19
    01:54:01.209 : Chapter 20
    Menu #2
    ID : 12
    Codec ID : text
    Duration : 2h 3mn
    Language : English
    Encoded date : UTC 2016-11-19 14:49:02
    Tagged date : UTC 2016-11-19 14:49:02
    00:00:00.000 : Chapter 1
    00:04:04.661 : Chapter 2
    00:08:21.543 : Chapter 3
    00:13:32.687 : Chapter 4
    00:18:28.316 : Chapter 5
    00:24:07.237 : Chapter 6
    00:29:21.259 : Chapter 7
    00:36:15.548 : Chapter 8
    00:42:20.663 : Chapter 9
    00:48:22.441 : Chapter 10
    00:55:12.184 : Chapter 11
    01:01:09.666 : Chapter 12
    01:08:32.483 : Chapter 13
    01:16:23.329 : Chapter 14
    01:24:45.330 : Chapter 15
    01:29:06.550 : Chapter 16
    01:37:52.909 : Chapter 17
    01:44:26.343 : Chapter 18
    01:48:03.727 : Chapter 19
    01:54:01.209 : Chapter 20
    Bit rate mode : VBR

    x264 лог

    x264 [info]: frame I:1768  Avg QP:16.52  size: 81030
    x264 [info]: frame P:74832 Avg QP:18.63  size: 27518
    x264 [info]: frame B:100621 Avg QP:20.01  size: 10200
    x264 [info]: consecutive B-frames:  9.7% 34.7% 27.8% 27.9%
    x264 [info]: mb I  I16..4:  9.7% 60.5% 29.8%
    x264 [info]: mb P  I16..4:  5.1%  9.1%  3.6%  P16..4: 47.0% 19.7%  9.1%  0.0%  0.0%    skip: 6.4%
    x264 [info]: mb B  I16..4:  0.5%  1.1%  0.4%  B16..8: 48.0% 10.2%  1.5%  direct: 5.3%  skip:33.1%  L0:42.4% L1:51.8% BI: 5.7%
    x264 [info]: 8x8 transform intra:52.7% inter:49.5%
    x264 [info]: coded y,uvDC,uvAC intra: 69.0% 73.3% 50.3% inter: 25.2% 24.1% 11.1%
    x264 [info]: i16 v,h,dc,p: 46% 18%  6% 30%
    x264 [info]: i8 v,h,dc,ddl,ddr,vr,hd,vl,hu:  7%  8%  5% 12% 16% 15% 15% 11% 11%
    x264 [info]: i4 v,h,dc,ddl,ddr,vr,hd,vl,hu:  8% 11%  5% 13% 17% 14% 14%  9%  9%
    x264 [info]: i8c dc,h,v,p: 51% 19% 18% 12%
    x264 [info]: ref P L0: 72.1% 16.8% 11.1%
    x264 [info]: ref B L0: 79.8% 20.2%
    x264 [info]: kb/s:3494.61

    Скриншоты

    -

    Релиз подготовлен для просмотра на Apple TV, iPad, iPhone, iPod Touch.
    Для просмотра данного релиза на компьютере с ОС Windows рекомендуется использовать VLC media player
    Скачать .torrent

    Скачать торрент-файл бесплатно и на максимальной скорости!

    Как скачивать? · Что такое торрент? · Рейтинг и ограничения

    !ВНИМАНИЕ!
    Сайт не распространяет и не хранит электронные версии произведений, а занимается лишь лишь предоставлением доступа к создаваемому пользователями каталогу ссылок на торрент-файлы, которые содержат только списки хеш-сумм, убедительная просьба с жалобами обращаться напрямую к пользователю. Файлы для обмена на трекере предоставлены пользователями сайта, и администрация не несёт ответственности за их содержание. Просьба не заливать файлы, защищенные авторскими правами, а также файлы нелегального содержания!


    _________________
    [Профиль] [ЛС]
    Показать сообщения:    
    Ответить на тему

    Текущее время: Сегодня, в 00:20

    Часовой пояс: GMT + 2



    Вы не можете начинать темы
    Вы не можете отвечать на сообщения
    Вы не можете редактировать свои сообщения
    Вы не можете удалять свои сообщения
    Вы не можете голосовать в опросах
    Вы не можете прикреплять файлы к сообщениям
    Вы не можете скачивать файлы