BitTorrentTracker PerecTracker.org
BitTorrentTracker PerecTracker.org
    
Регистрация  ·  Вход
 
 · 
Забыли пароль?

  • Лузеры / Losers / Каръци (Ивайло Христов / Ivaylo Hristov) [2015, Болгария, мелодрама, SATRip-AVC] MVO (СВ-Дубль)

    Ответить на тему
     
    Автор Сообщение

    Light

    Создавать темы 19-Ноя-2016 22:20

           

    [Цитировать]

    -Лузеры / Losers / Каръци-Страна: Болгария
    Жанр: мелодрама
    Год выпуска: 2015
    Продолжительность: 01:32:21-Перевод: Профессиональный (многоголосый закадровый) СВ-Дубль
    Cубтитры: нет-Режиссер: Ивайло Христов / Ivaylo Hristov-В ролях: Ованес Торосян, Деян Донков, Елена Телбис, Ненчо Илчев, Ивайло Христов, Стоян Лазаров, Пламен Димов, Георги Гоцин, Дарий Чавдаров, Ивайло Драганов, Драгомир Драганов, Николай Йовин, Стоян Алексиев, Кристина Янева, Рут Рафаилова, Йована Йорданова-Описание: Ученики средней школы Елена, Коко, Гошо и Пацо живут в маленьком провинциальном городке в Болгарии. Сами они считают себя неудачниками, лузерами. Коко влюблен в Елену, которая мечтает стать певицей и не обращает на него внимания. Унылую атмосферу городка оживляет приезд столичной рок-группы, а заодно дает начало новым любовным романам, разочарованиям и запутанным взаимоотношениям.-Доп. информация:

    Автор сценария: Ивайло Христов
    Продюсер: Асен Владимиров
    Оператор: Эмил Христов
    Композитор: Кирил Дончев
    Приз: Золотой "Святой Георгий" за лучший фильм на 37-м ММКФ в 2015 году.-Фильм озвучен студией "СВ-Дубль" по заказу "Камертон-Медиа".-Сэмпл: https://yadi.sk/i/pfS2-JKlyxY55-Качество видео: SATRip-AVC
    Формат видео: MKV
    Видео кодек: H.264
    Аудио кодек: AC-3
    Видео: 712@777x354 анаморф (2.195:1), 25 fps, ~2100 kbps, 0.333 bit/pixel
    Аудио: 48 kHz, 2 канала, ~192 kbps-MediaInfo

    Log

    raw [info]: 712x354p 12:11 @ 25/1 fps (cfr)
    x264 [info]: using SAR=12/11
    x264 [info]: using cpu capabilities: MMX2 SSE2Fast SSSE3 SSE4.2 LZCNT BMI1 BMI2
    x264 [info]: profile High, level 4.1
    x264 [info]: frame I:869 Avg QP:13.98 size: 60394
    x264 [info]: frame P:37185 Avg QP:16.78 size: 28313
    x264 [info]: frame B:100495 Avg QP:19.94 size: 3477
    Общее
    Уникальный идентификатор : 180214614983902395527129975041043572244 (0x87941284F6D06C55B51808562CCDA614)
    Полное имя : C:\Torrent\Лузеры.2015.SATRip-AVC by Dmitrio7197\Лузеры.2015.SATRip-AVC by Dmitrio7197.mkv
    Формат : Matroska
    Версия формата : Version 2
    Размер файла : 1,48 Гбайт
    Продолжительность : 1 ч. 32 м.
    Общий поток : 2294 Кбит/сек
    Дата кодирования : UTC 2016-11-19 07:48:54
    Программа кодирования : mkvmerge v6.1.0 ('Old Devil') built on Mar 4 2013 09:10:42
    Библиотека кодирования : libebml v1.3.0 + libmatroska v1.4.0
    Видео
    Идентификатор : 1
    Формат : AVC
    Формат/Информация : Advanced Video Codec
    Профиль формата : High@L4.1
    Параметр CABAC формата : Да
    Параметр ReFrames формата : 10 кадров
    Идентификатор кодека : V_MPEG4/ISO/AVC
    Продолжительность : 1 ч. 32 м.
    Битрейт : 2100 Кбит/сек
    Ширина : 712 пикселей
    Высота : 354 пикселя
    Соотношение сторон : 2,2:1
    Соотношение сторон в оригинале : 2,2:1
    Режим частоты кадров : Постоянный
    Частота кадров : 25,000 кадров/сек
    Цветовое пространство : YUV
    Субдискретизация насыщенности : 4:2:0
    Битовая глубина : 8 бит
    Тип развёртки : Прогрессивная
    Бит/(Пиксели*Кадры) : 0.333
    Размер потока : 1,33 Гбайт (90%)
    Библиотека кодирования : x264 core 130 r2273 b3065e6
    Настройки программы : cabac=1 / ref=10 / deblock=1:-3:-3 / analyse=0x3:0x113 / me=umh / subme=9 / psy=1 / psy_rd=1.00:0.00 / mixed_ref=1 / me_range=42 / chroma_me=1 / trellis=2 / 8x8dct=1 / cqm=0 / deadzone=21,11 / fast_pskip=0 / chroma_qp_offset=-2 / threads=6 / lookahead_threads=1 / sliced_threads=0 / nr=0 / decimate=0 / interlaced=0 / bluray_compat=0 / constrained_intra=0 / bframes=10 / b_pyramid=2 / b_adapt=2 / b_bias=0 / direct=3 / weightb=1 / open_gop=0 / weightp=2 / keyint=250 / keyint_min=25 / scenecut=40 / intra_refresh=0 / rc_lookahead=40 / rc=2pass / mbtree=1 / bitrate=2100 / ratetol=1.0 / qcomp=0.60 / qpmin=0 / qpmax=69 / qpstep=4 / cplxblur=20.0 / qblur=0.5 / ip_ratio=1.40 / aq=1:1.00
    Default : Да
    Forced : Нет
    Аудио
    Идентификатор : 2
    Формат : AC-3
    Формат/Информация : Audio Coding 3
    Расширение режима : CM (complete main)
    Параметр Endianness формата : Big
    Идентификатор кодека : A_AC3
    Продолжительность : 1 ч. 32 м.
    Вид битрейта : Постоянный
    Битрейт : 192 Кбит/сек
    Каналы : 2 канала
    Расположение каналов : Front: L R
    Частота : 48,0 КГц
    Частота кадров : 31,250 кадров/сек (1536 spf)
    Метод сжатия : С потерями
    Размер потока : 127 Мбайт (8%)
    Default : Да
    Forced : Нет

    Скриншот c названием фильма

    Скриншоты

    Скачать .torrent

    Скачать торрент-файл бесплатно и на максимальной скорости!

    Как скачивать? · Что такое торрент? · Рейтинг и ограничения

    !ВНИМАНИЕ!
    Сайт не распространяет и не хранит электронные версии произведений, а занимается лишь лишь предоставлением доступа к создаваемому пользователями каталогу ссылок на торрент-файлы, которые содержат только списки хеш-сумм, убедительная просьба с жалобами обращаться напрямую к пользователю. Файлы для обмена на трекере предоставлены пользователями сайта, и администрация не несёт ответственности за их содержание. Просьба не заливать файлы, защищенные авторскими правами, а также файлы нелегального содержания!


    _________________
    [Профиль] [ЛС]
    Показать сообщения:    
    Ответить на тему

    Текущее время: Сегодня, в 20:09

    Часовой пояс: GMT + 2



    Вы не можете начинать темы
    Вы не можете отвечать на сообщения
    Вы не можете редактировать свои сообщения
    Вы не можете удалять свои сообщения
    Вы не можете голосовать в опросах
    Вы не можете прикреплять файлы к сообщениям
    Вы не можете скачивать файлы