BitTorrentTracker PerecTracker.org
BitTorrentTracker PerecTracker.org
    
Регистрация  ·  Вход
 
 · 
Забыли пароль?

  • Дитя шторма / Les deferlantes (Элеонор Фоше / Eleonore Faucher) [2013, Франция, драма, экранизация, DVB] Original (Fre) + Sub (Rus, Eng, Fre, Deu)

    Ответить на тему
     
    Автор Сообщение

    Light

    Создавать темы 19-Ноя-2016 22:20

           

    [Цитировать]

    Дитя шторма
    Les déferlantes-Страна: Франция
    Жанр: драма, экранизация
    Год выпуска: 2013
    Продолжительность: 01:38:15
    Перевод: Субтитры (перевод И.Рыбкиной, Éclair Media)
    Cубтитры: русские, английские, французские, немецкие, нидерландские
    Оригинальная аудиодорожка: французский
    Режиссер: Элеонор Фоше / Éléonore FaucherВ ролях: Сильви Тестю / Sylvie Testud (Louise), Бруно Тодескини / Bruno Todeschini (Lambert), Даниэль Дюваль / Daniel Duval (Théo), Бюль Ожье / Bulle Ogier (Florelle), Ева Ионеско / Eva Ionesco (Lili), Янник Ренье / Yannick Renier (Tristan)
    Описание: по одноименному роману Клоди Галле / Claudie Gallay (2008), получившему множество престижных литературных наград, среди которых премия читателей Брив-ла-Гайард 2008, премия "Культура и библиотеки для всех" 2009; Гран-при читателей журнала Elle 2009; премия Анри Кеффелека "Книга и море" 2009; премия Жана-Пьера Кудюрье от читателей Telegramme 2009, премия Розин Перрье 2009, премия читателей города Кан 2009.
    Луиза решает начать новую жизнь на мысе Аг, где распожен старый маяк, и где она находит работу орнитолога. Заметив странное отношение сельчан к некоему Ламберу, появившемуся здесь после 25-летнего отсутствия, она решает окунуться в прошлое этого прибрежного местечка...
    Доп. информация: Hot Bird (13.0°E) TV5MONDE Europe DVB-S
    Участник Festival de la Fiction TV 2013.

    Качество видео: DVB
    Формат видео: MKV
    Видео: MPEG Video 2, 720x576@1024x576 (16:9), 25 fps, ~2871 kbps avg, 0.277 bit/pixel
    Аудио: MPEG Audio 2, 2 ch, 48 kHz, 192 kbps - французский
    Формат субтитров: softsub (SRT)

    Пример субтитров

    100:00:50,936 --> 00:00:53,936ДИТЯ ШТОРМА
    200:01:44,136 --> 00:01:46,530Что вам угодно?
    300:01:46,530 --> 00:01:47,825Ой, простите.
    400:01:47,825 --> 00:01:50,825Я ищу девушку.Ее зовут Луиза Леже.
    500:01:51,051 --> 00:01:53,421Она где-то здесь живет.
    600:01:53,421 --> 00:01:56,377-Вы ее видели?-А что?
    700:01:56,377 --> 00:01:58,251-Вы из полиции?-Нет.
    800:01:58,251 --> 00:02:00,742-Я частное лицо.-Нет.
    900:02:00,742 --> 00:02:03,529Мне жаль.Я ее не знаю.
    1000:02:03,529 --> 00:02:06,300Если увидите,позвоните мне.
    1100:02:06,300 --> 00:02:09,300Я номер сзади написала.Это важно.
    1200:03:30,692 --> 00:03:33,692Тебя утром одна парижанкаразыскивала.
    1300:03:37,143 --> 00:03:38,737Госпожа Грей.
    1400:03:38,737 --> 00:03:41,654Свой номер телефона оставила.
    1500:03:41,654 --> 00:03:44,049Сказала, что дело важное.
    1600:03:44,049 --> 00:03:47,049Не бойся.Я не сказала, что мы знакомы.
    1700:03:47,739 --> 00:03:50,739Я не знаю женщины с такой фамилией.Это ошибка.
    1800:03:51,539 --> 00:03:54,296А это что?
    1900:03:54,296 --> 00:03:57,296Почему ты здесьтак не одеваешься?
    2000:03:57,493 --> 00:04:00,493Мы этого недостойны?

    MediaInfo

    GeneralUnique ID : 216207352879626352275365106402996435408 (0xA2A80581BA9DF024AC4BB448063EB9D0)Complete name : [apreder]Les_deferlantes(2013)DVB.mkvFormat : MatroskaFormat version : Version 2File size : 2.15 GiBDuration : 1 h 38 minOverall bit rate : 3 126 kb/sMovie name : Les deferlantesReleased date : 2013-11-22Encoded date : UTC 2016-11-19 09:37:54Writing application : mkvmerge v9.5.0 ('Quiet Fire') 64bitWriting library : libebml v1.3.4 + libmatroska v1.4.5Cover : YesAttachments : cover.jpg / small_cover.jpgACTOR : Sylvie Testud, Bruno Todeschini, Daniel DuvalDIRECTOR : Eleonore FaucherGENRE : DramaIMDB : tt3305746KEYWORDS : perectracker.orgLAW_RATING : 16+
    VideoID : 1Format : MPEG VideoFormat version : Version 2Format profile : Main@MainFormat settings, BVOP : YesFormat settings, Matrix : CustomFormat settings, GOP : M=4, N=12Format settings, picture structure : FrameCodec ID : V_MPEG2Codec ID/Info : MPEG 1 or 2 VideoDuration : 1 h 38 minBit rate mode : ConstantBit rate : 2 871 kb/sMaximum bit rate : 3 200 kb/sWidth : 720 pixelsHeight : 576 pixelsDisplay aspect ratio : 16:9Frame rate mode : ConstantFrame rate : 25.000 FPSStandard : PALColor space : YUVChroma subsampling : 4:2:0Bit depth : 8 bitsScan type : InterlacedScan order : Top Field FirstCompression mode : LossyBits/(Pixel*Frame) : 0.277Stream size : 1.97 GiB (92%)Default : YesForced : No
    AudioID : 2Format : MPEG AudioFormat version : Version 1Format profile : Layer 2Codec ID : A_MPEG/L2Codec ID/Hint : MP2Duration : 1 h 38 minBit rate mode : ConstantBit rate : 192 kb/sChannel(s) : 2 channelsSampling rate : 48.0 kHzCompression mode : LossyStream size : 135 MiB (6%)Language : FrenchDefault : YesForced : No
    Text #1ID : 3Format : UTF-8Codec ID : S_TEXT/UTF8Codec ID/Info : UTF-8 Plain TextLanguage : RussianDefault : NoForced : No
    Text #2ID : 4Format : UTF-8Codec ID : S_TEXT/UTF8Codec ID/Info : UTF-8 Plain TextLanguage : EnglishDefault : NoForced : No
    Text #3ID : 5Format : UTF-8Codec ID : S_TEXT/UTF8Codec ID/Info : UTF-8 Plain TextLanguage : FrenchDefault : NoForced : No
    Text #4ID : 6Format : UTF-8Codec ID : S_TEXT/UTF8Codec ID/Info : UTF-8 Plain TextLanguage : GermanDefault : NoForced : No
    Text #5ID : 7Format : UTF-8Codec ID : S_TEXT/UTF8Codec ID/Info : UTF-8 Plain TextLanguage : DutchDefault : NoForced : No

    Скриншот c названием фильма

    Скриншоты

    Резервные скриншоты


    -
    Скачать .torrent

    Скачать торрент-файл бесплатно и на максимальной скорости!

    Как скачивать? · Что такое торрент? · Рейтинг и ограничения

    !ВНИМАНИЕ!
    Сайт не распространяет и не хранит электронные версии произведений, а занимается лишь лишь предоставлением доступа к создаваемому пользователями каталогу ссылок на торрент-файлы, которые содержат только списки хеш-сумм, убедительная просьба с жалобами обращаться напрямую к пользователю. Файлы для обмена на трекере предоставлены пользователями сайта, и администрация не несёт ответственности за их содержание. Просьба не заливать файлы, защищенные авторскими правами, а также файлы нелегального содержания!


    _________________
    [Профиль] [ЛС]
    Показать сообщения:    
    Ответить на тему

    Текущее время: Сегодня, в 16:39

    Часовой пояс: GMT + 2



    Вы не можете начинать темы
    Вы не можете отвечать на сообщения
    Вы не можете редактировать свои сообщения
    Вы не можете удалять свои сообщения
    Вы не можете голосовать в опросах
    Вы не можете прикреплять файлы к сообщениям
    Вы не можете скачивать файлы