BitTorrentTracker PerecTracker.org
BitTorrentTracker PerecTracker.org
    
Регистрация  ·  Вход
 
 · 
Забыли пароль?

  • У Венсана нет чешуи / Vincent n\'a pas d\'ecailles (Тома Сальвадор / Thomas Salvador) [2014, Франция, комедия, драма, фантастика, DVB] Original (Fre) + Sub (Rus, Eng, Fre, Deu)

    Ответить на тему
     
    Автор Сообщение

    Light

    Создавать темы 19-Ноя-2016 22:20

           

    [Цитировать]

    У Венсана нет чешуи
    Vincent n'a pas d'écailles-Страна: Франция
    Жанр: комедия, драма, фантастика
    Год выпуска: 2014
    Продолжительность: 01:14:04
    Перевод: Субтитры (перевод И.Рыбкиной, Éclair Media)
    Cубтитры: русские, английские, французские, немецкие, нидерландские
    Оригинальная аудиодорожка: французский
    Режиссер: Тома Сальвадор / Thomas SalvadorВ ролях: Тома Сальвадор / Thomas Salvador (Vincent), Вимала Понс / Vimala Pons (Lucie), Юсеф Хаджди / Youssef Hajdi (Driss), Николя Жайе / Nicolas Jaillet (Lieutenant Le Brec), Нина Мёрисс / Nina Meurisse (L'amie de Lucie), Реми Вентура / Rémy Ventura (Homme camping)
    Описание: Венсан — скромный молодой человек, живет в районе, где много рек и озер. Он встречает девушку по имени Люси и влюбляется в нее. Но Венсан должен раскрыть свой секрет — дело в том, что он обладает сверхчеловеческой способностью, которая возникает, когда он прикасается к воде…
    Доп. информация: Hot Bird (13.0°E) TV5MONDE Europe DVB-S
    Награды: Гран-при жюри Festival international du film independant de Bordeaux 2014; приз зрительских симпатий Festival international du film de La Roche-sur-Yon 2014; 2 награды Festival CineramaBC de Balneario Camboriu 2015 (Специальный приз жюри, приз прессы); номинация на премию "Золотые врата" лучшему режиссеру-дебютанту San Francisco International Film Festival 2015; номинация на лучший фильм Sydney Film Festival 2015; номинация на лучшего режиссера-дебютанта Seattle International Film Festival 2015; номинация на премию Луи Деллюка 2015 за лучший дебютный фильм; номинация на премию Heike Hurst Award за лучший полнометражный дебютный фильм Lumiere Awards 2016; др. награды.

    Качество видео: DVB
    Формат видео: MKV
    Видео: MPEG Video 2, 720x576@1024x576 (16:9), 25 fps, ~2813 kbps avg, 0.271 bit/pixel
    Аудио: MPEG Audio 2, 2 ch, 48 kHz, 192 kbps - французский
    Формат субтитров: softsub (SRT)

    Пример субтитров

    100:01:29,086 --> 00:01:32,086У ВЕНСАНА НЕТ ЧЕШУИ
    200:04:05,850 --> 00:04:08,850-Мы договорились на 3 ночи.-Я еще не нашел работу.
    300:04:09,489 --> 00:04:12,489Все равно придется уйти.
    400:06:33,724 --> 00:06:35,215-Венсан!-Да?
    500:06:35,215 --> 00:06:38,215-Бери побольше.-Хорошо.
    600:06:56,248 --> 00:06:58,407Венсан.
    700:06:58,407 --> 00:07:01,407Это тоже.
    800:09:17,445 --> 00:09:20,445-Все, что надо, есть?-Да, спасибо.
    900:09:21,330 --> 00:09:24,210Мы за стол садимся.Поешь с нами?
    1000:09:24,210 --> 00:09:25,330Нет, спасибо.
    1100:09:25,330 --> 00:09:27,374В следующий раз.
    1200:09:27,374 --> 00:09:30,374Спасибо.
    1300:09:57,926 --> 00:10:00,926Пас давай!
    1400:10:00,965 --> 00:10:03,403-Они тебя утомляют?-Нет!
    1500:10:03,403 --> 00:10:06,403Все в порядке.
    1600:10:45,370 --> 00:10:48,370Ну да!
    1700:12:54,007 --> 00:12:57,007Спасибо.
    1800:13:29,043 --> 00:13:32,043Умеешь так?
    1900:13:33,686 --> 00:13:36,686Спасибо.
    2000:13:42,091 --> 00:13:44,447Все просто отлично.

    MediaInfo

    GeneralUnique ID : 183594450011795768079344413557742731413 (0x8A1F01407A4D714598935D544FF18095)Complete name : [apreder]Vincent_n'a_pas_d'ecailles(2014)DVB.mkvFormat : MatroskaFormat version : Version 2File size : 1.59 GiBDuration : 1 h 14 minOverall bit rate : 3 066 kb/sMovie name : Vincent n'a pas d'йcaillesReleased date : 2015-02-18Encoded date : UTC 2016-11-19 11:54:24Writing application : mkvmerge v9.5.0 ('Quiet Fire') 64bitWriting library : libebml v1.3.4 + libmatroska v1.4.5Cover : YesAttachments : cover.jpg / small_cover.jpgACTOR : Thomas Salvador, Vimala PonsDIRECTOR : Thomas SalvadorGENRE : Comedy, Drama, FantasyIMDB : tt3636528KEYWORDS : perectracker.orgLAW_RATING : 16+
    VideoID : 1Format : MPEG VideoFormat version : Version 2Format profile : Main@MainFormat settings, BVOP : YesFormat settings, Matrix : CustomFormat settings, GOP : VariableFormat settings, picture structure : FrameCodec ID : V_MPEG2Codec ID/Info : MPEG 1 or 2 VideoDuration : 1 h 14 minBit rate mode : ConstantBit rate : 2 813 kb/sMaximum bit rate : 3 200 kb/sWidth : 720 pixelsHeight : 576 pixelsDisplay aspect ratio : 16:9Frame rate mode : ConstantFrame rate : 25.000 FPSStandard : PALColor space : YUVChroma subsampling : 4:2:0Bit depth : 8 bitsScan type : InterlacedScan order : Top Field FirstCompression mode : LossyBits/(Pixel*Frame) : 0.271Stream size : 1.46 GiB (92%)Default : YesForced : No
    AudioID : 2Format : MPEG AudioFormat version : Version 1Format profile : Layer 2Codec ID : A_MPEG/L2Codec ID/Hint : MP2Duration : 1 h 14 minBit rate mode : ConstantBit rate : 192 kb/sChannel(s) : 2 channelsSampling rate : 48.0 kHzCompression mode : LossyStream size : 102 MiB (6%)Language : FrenchDefault : YesForced : No
    Text #1ID : 3Format : UTF-8Codec ID : S_TEXT/UTF8Codec ID/Info : UTF-8 Plain TextLanguage : RussianDefault : NoForced : No
    Text #2ID : 4Format : UTF-8Codec ID : S_TEXT/UTF8Codec ID/Info : UTF-8 Plain TextLanguage : EnglishDefault : NoForced : No
    Text #3ID : 5Format : UTF-8Codec ID : S_TEXT/UTF8Codec ID/Info : UTF-8 Plain TextLanguage : FrenchDefault : NoForced : No
    Text #4ID : 6Format : UTF-8Codec ID : S_TEXT/UTF8Codec ID/Info : UTF-8 Plain TextLanguage : GermanDefault : NoForced : No
    Text #5ID : 7Format : UTF-8Codec ID : S_TEXT/UTF8Codec ID/Info : UTF-8 Plain TextLanguage : DutchDefault : NoForced : No

    Скриншот c названием фильма

    Скриншоты

    Резервные скриншоты


    -
    Скачать .torrent

    Скачать торрент-файл бесплатно и на максимальной скорости!

    Как скачивать? · Что такое торрент? · Рейтинг и ограничения

    !ВНИМАНИЕ!
    Сайт не распространяет и не хранит электронные версии произведений, а занимается лишь лишь предоставлением доступа к создаваемому пользователями каталогу ссылок на торрент-файлы, которые содержат только списки хеш-сумм, убедительная просьба с жалобами обращаться напрямую к пользователю. Файлы для обмена на трекере предоставлены пользователями сайта, и администрация не несёт ответственности за их содержание. Просьба не заливать файлы, защищенные авторскими правами, а также файлы нелегального содержания!


    _________________
    [Профиль] [ЛС]
    Показать сообщения:    
    Ответить на тему

    Текущее время: Сегодня, в 20:07

    Часовой пояс: GMT + 2



    Вы не можете начинать темы
    Вы не можете отвечать на сообщения
    Вы не можете редактировать свои сообщения
    Вы не можете удалять свои сообщения
    Вы не можете голосовать в опросах
    Вы не можете прикреплять файлы к сообщениям
    Вы не можете скачивать файлы