BitTorrentTracker PerecTracker.org
BitTorrentTracker PerecTracker.org
    
Регистрация  ·  Вход
 
 · 
Забыли пароль?

  • Убей меня три раза / Kill Me Three Times (Крив Стендерс / Kriv Stenders) [2014, США, Австралия, Боевик, триллер, комедия, HDRip] MVO (BadCatStudio)

    Ответить на тему
     
    Автор Сообщение

    Light

    Создавать темы 05-Июл-2015 21:53

           

    [Цитировать]

    Убей меня три раза / Kill Me Three Times
    Страна: США, Австралия
    Жанр: Боевик, триллер, комедия
    Год выпуска: 2014
    Продолжительность: 01:30:22
    Перевод: Любительский (многоголосый закадровый) BadCatStudio
    Cубтитры: нет
    Оригинальная аудиодорожка: нет
    Внимание! В переводе присутствует нецензурная лексика!
    Режиссер: Крив Стендерс / Kriv Stenders
    В ролях: Тереза Палмер, Саймон Пегг, Люк Хемсворт, Алиси Брага, Салливан Степлтон, Каллэн Мулвей, Брайан Браун, Стив Ле Маркванд, Тони Спенсер, Анна Филп
    Описание: Чарли Вульф - наемный убийца, который ненавидит, когда в его дела вмешивается кто-нибудь посторонний. Однажды к нему обращается старый знакомый Джек Тейлор, который предлагает ему пятьдесят тысяч за убийство своей жены во время ее визита к . Выследив жертву, Чарли готовится выполнить заказ, но вскоре замечает, как дантист и его медсестра-ассистентка грузят тело супруги Джека в багажник . Киллер совершенно не ожидал такого поворота событий и начал слежку за своими конкурентами. Он уверен только в одном, что смерти этой женщины хочет не только Джек, но возвращать свой гонорар Чарли не намерен...
    Доп. информация: 5.9
    6.1
    Сэмпл: http://rusfolder.com/43895009
    Качество видео: HDRip
    Формат видео: AVI
    Видео: XviD ,1772 kb/s, 720x304, 23.976 fps
    Аудио: AC3, 384 kb/s, 6 ch, 48.0 KHz

    MediaInfo

    General
    Complete name : F:\ubeY.meH1a.3.Pa3a.2015.L.HDRip.1400Mb.avi
    Format : AVI
    Format/Info : Audio Video Interleave
    File size : 1.37 GiB
    Duration : 1h 30mn
    Overall bit rate : 2 165 Kbps
    Writing application : VirtualDubMod 1.5.10.2 (build 2540/release)
    Writing library : VirtualDubMod build 2540/release
    Video
    ID : 0
    Format : MPEG-4 Visual
    Format profile : Advanced Simple@L5
    Format settings, BVOP : 2
    Format settings, QPel : No
    Format settings, GMC : No warppoints
    Format settings, Matrix : Default (MPEG)
    Codec ID : XVID
    Codec ID/Hint : XviD
    Duration : 1h 30mn
    Bit rate : 1 772 Kbps
    Width : 720 pixels
    Height : 304 pixels
    Display aspect ratio : 2.35:1
    Frame rate : 23.976 fps
    Color space : YUV
    Chroma subsampling : 4:2:0
    Bit depth : 8 bits
    Scan type : Progressive
    Compression mode : Lossy
    Bits/(Pixel*Frame) : 0.338
    Stream size : 1.12 GiB (82%)
    Writing library : XviD 1.2.1 (UTC 2008-12-04)
    Audio
    ID : 1
    Format : AC-3
    Format/Info : Audio Coding 3
    Mode extension : CM (complete main)
    Format settings, Endianness : Big
    Codec ID : 2000
    Duration : 1h 30mn
    Bit rate mode : Constant
    Bit rate : 384 Kbps
    Channel(s) : 6 channels
    Channel positions : Front: L C R, Side: L R, LFE
    Sampling rate : 48.0 KHz
    Compression mode : Lossy
    Stream size : 248 MiB (18%)
    Alignment : Split accross interleaves
    Interleave, duration : 42 ms (1.00 video frame)
    Interleave, preload duration : 500 ms

    Скриншот c названием фильма

    Скриншоты











    Скачать .torrent

    Скачать торрент-файл бесплатно и на максимальной скорости!

    Как скачивать? · Что такое торрент? · Рейтинг и ограничения

    !ВНИМАНИЕ!
    Сайт не распространяет и не хранит электронные версии произведений, а занимается лишь лишь предоставлением доступа к создаваемому пользователями каталогу ссылок на торрент-файлы, которые содержат только списки хеш-сумм, убедительная просьба с жалобами обращаться напрямую к пользователю. Файлы для обмена на трекере предоставлены пользователями сайта, и администрация не несёт ответственности за их содержание. Просьба не заливать файлы, защищенные авторскими правами, а также файлы нелегального содержания!


    _________________
    [Профиль] [ЛС]
    Показать сообщения:    
    Ответить на тему

    Текущее время: Сегодня, в 06:12

    Часовой пояс: GMT + 2



    Вы не можете начинать темы
    Вы не можете отвечать на сообщения
    Вы не можете редактировать свои сообщения
    Вы не можете удалять свои сообщения
    Вы не можете голосовать в опросах
    Вы не можете прикреплять файлы к сообщениям
    Вы не можете скачивать файлы