BitTorrentTracker PerecTracker.org
BitTorrentTracker PerecTracker.org
    
Регистрация  ·  Вход
 
 · 
Забыли пароль?

  • Мой маленький пони: Девочки из Эквестрии. Легенды вечнозеленого леса / My Little Pony: Equestria Girls - Legend of Everfree (Ishi Rudell, Katrina Hadley) [2016, приключения, семейный, фэнтези, WEB-DLRip] Dub (Карусель)

    Ответить на тему
     
    Автор Сообщение

    Flirldrerve

    Создавать темы 19-Ноя-2016 14:00

           

    [Цитировать]

    Мой маленький пони: Девочки из Эквестрии. Легенды вечнозеленого леса / My Little Pony: Equestria Girls - Legend of EverfreeСтрана: США
    Жанр: Приключения, семейный, фэнтези
    Продолжительность: 01:13:11
    Год выпуска: 2016
    Перевод: Профессиональный (дублированный) (телеканал Карусель) (СВ-Дубль по заказу ВГТРК)
    Русские субтитры: нет
    Режиссёр: Иши Руделл / Ishi Rudell, Катрина Хадли / Katrina Hadley
    Роли озвучивали: Тара Стронг, Ребекка Шойкет, Эшли Болл, Андреа Либман, Табита Сен-Жермен, Кэти Уэслак и другие
    Описание: Самые новые волшебные приключения девочек из Эквестрии! После событий "Игр дружбы" студенты школы Кантерлот едут отдыхать в лесной лагерь. Все радуются поездке, кроме Твайлайт Спаркл, которая продолжает видеть странные сны. Но, что еще хуже, у нее появляются неожиданные магические способности. Когда в лесу начинают происходить необъяснимые события, Твайлайт Спаркл винит в них себя, а остальные уверены, что это проделки злого духа, легенду о котором они недавно услышали.

    Предыдущие и альтернативные раздачи
    Рейтинг:
    Качество: WEB-DLRip
    Формат: AVI
    Видео: XviD, 720x400, 23.976 fps, 2263 kbps
    Аудио Rus: AC3, 48 kHz, 2 ch, 192 kbps
    Аудио Eng: AC3, 48 kHz, 6 ch, 384 kbps

    Скриншоты

    Дополнительная информация

    В раздаче находится русский профессиональный дубляж студии СВ-Дубль по заказу ВГТРК, показанный на телеканале Карусель в моно, а также оригинальная аудиодорожка.

    Подробные технические данные

    ОбщееПолное имя : D:\Video\Mults\mlp.eg4.loe.2016.web-dlrip.aviФормат : AVIФормат/Информация : Audio Video InterleaveРазмер файла : 1,46 ГбайтПродолжительность : 1 ч. 13 м.Общий поток : 2847 Кбит/секПрограмма кодирования : VirtualDubMod 1.5.4.1 (build 2178/release)Библиотека кодирования : VirtualDubMod build 2178/release
    ВидеоИдентификатор : 0Формат : MPEG-4 VisualПрофиль формата : Advanced Simple@L5Параметр BVOP формата : НетПараметр QPel формата : НетПараметр GMC формата : Без точки переходаПараметр матрицы формата : ВыборочнаяИдентификатор кодека : XVIDИдентификатор кодека/Подсказка : XviDПродолжительность : 1 ч. 13 м.Битрейт : 2263 Кбит/секШирина : 720 пикселейВысота : 400 пикселейСоотношение сторон : 16:9Частота кадров : 23,976 (23976/1000) кадра/секЦветовое пространство : YUVСубдискретизация насыщенности : 4:2:0Битовая глубина : 8 битТип развёртки : ПрогрессивнаяМетод сжатия : С потерямиБит/(Пиксели*Кадры) : 0.328Размер потока : 1,16 Гбайт (79%)Библиотека кодирования : XviD 1.2.1 (UTC 2008-12-04)
    Аудио #1Идентификатор : 1Формат : AC-3Формат/Информация : Audio Coding 3Расширение режима : CM (complete main)Параметр Endianness формата : BigИдентификатор кодека : 2000Продолжительность : 1 ч. 13 м.Вид битрейта : ПостоянныйБитрейт : 192 Кбит/секКаналы : 2 каналаРасположение каналов : Front: L RЧастота : 48,0 КГцЧастота кадров : 31,250 кадров/сек (1536 spf)Метод сжатия : С потерямиРазмер потока : 101 Мбайт (7%)Выравнивание : Разделение по промежуткамПродолжительность промежутка : 96 мс. (2,30 видеокадра)Время предзагрузки промежутка : 96 мс.
    Аудио #2Идентификатор : 2Формат : AC-3Формат/Информация : Audio Coding 3Расширение режима : CM (complete main)Параметр Endianness формата : BigИдентификатор кодека : 2000Продолжительность : 1 ч. 13 м.Вид битрейта : ПостоянныйБитрейт : 384 Кбит/секКаналы : 6 каналовРасположение каналов : Front: L C R, Side: L R, LFEЧастота : 48,0 КГцЧастота кадров : 31,250 кадров/сек (1536 spf)Метод сжатия : С потерямиРазмер потока : 201 Мбайт (13%)Выравнивание : Разделение по промежуткамПродолжительность промежутка : 96 мс. (2,30 видеокадра)Время предзагрузки промежутка : 96 мс.
    Скачать .torrent

    Скачать торрент-файл бесплатно и на максимальной скорости!

    Как скачивать? · Что такое торрент? · Рейтинг и ограничения

    !ВНИМАНИЕ!
    Сайт не распространяет и не хранит электронные версии произведений, а занимается лишь лишь предоставлением доступа к создаваемому пользователями каталогу ссылок на торрент-файлы, которые содержат только списки хеш-сумм, убедительная просьба с жалобами обращаться напрямую к пользователю. Файлы для обмена на трекере предоставлены пользователями сайта, и администрация не несёт ответственности за их содержание. Просьба не заливать файлы, защищенные авторскими правами, а также файлы нелегального содержания!


    _________________
    [Профиль] [ЛС]
    Показать сообщения:    
    Ответить на тему

    Текущее время: Сегодня, в 20:04

    Часовой пояс: GMT + 2



    Вы не можете начинать темы
    Вы не можете отвечать на сообщения
    Вы не можете редактировать свои сообщения
    Вы не можете удалять свои сообщения
    Вы не можете голосовать в опросах
    Вы не можете прикреплять файлы к сообщениям
    Вы не можете скачивать файлы