BitTorrentTracker PerecTracker.org
BitTorrentTracker PerecTracker.org
    
Регистрация  ·  Вход
 
 · 
Забыли пароль?

  • [ATV3] Джейсон Борн / Jason Bourne (Пол Гринграсс / Paul Greengrass ) [2016, США, Боевик, триллер, BDRip, HD (1080p)] DUB + Original + sub (rus, ukr, eng)

    Ответить на тему
     
    Автор Сообщение

    rechyn

    Создавать темы 19-Ноя-2016 14:00

           

    [Цитировать]

    Джейсон Борн / Jason Bourne
    «Вы знаете его имя»
    -Год выпуска: 2016
    Страна: США
    Жанр: Боевик, триллер
    Продолжительность: 02:03:11
    Перевод: Дублированный (Blu-ray CEE)
    Оригинальная аудиодорожка: Есть
    Cубтитры: Русские форсированные, Украинские форсированные, Русские, Украинские, Английские, Английские SDH
    Режиссёр: Пол Гринграсс
    Сценарий: Пол Гринграсс, Кристофер Раус, Роберт Ладлэм
    Продюсер: Мэтт Дэймон, Грегори Гудман, Пол Гринграсс
    Оператор: Бэрри Экройд
    Композитор: Дэвид Бакли, Джон Пауэлл
    Художник: Пол Кирби, Аманда Леггатт, Джо Ховард
    Монтаж: Кристофер Раус
    В ролях: Мэтт Дэймон, Алисия Викандер, Томми Ли Джонс, Венсан Кассель, Джулия Стайлз, Риз Ахмед, Ато Эссонда, Скотт Шеперд, Билл Кэмп, Винцец Кифер
    Бюджет: $120 000 000
    Сборы в США: $162 192 920
    Сборы в мире: + $253 050 504 = $415 243 424
    Сборы в России: $4 135 608
    Мировая премьера: 3 июля 2016
    Премьера (РФ): 1 сентября 2016, «UPI»
    Описание: Мир на грани катастрофы, а значит пришло время ему вернуться. Неаполь, Мюнхен, Нью-Йорк — его имя знают повсюду. Элитный суперагент, лучший из лучших, даже в Лас-Вегасе игра пойдет по его правилам. Он — Джейсон Борн.-Качество исходника: Blu-Ray (HDClub)
    Качество: BDRip
    Тип: HD (1080p)
    Контейнер: M4V
    Видео: H.264, 1920x800, 2.40:1, 8 000 Kbps, 23.976 fps
    Аудио 1: Русский/Дублированный (Blu-ray CEE), AAC / 2.0 / 160 Kbps / 48.0 KHz
    Аудио 2: Английский/Оригинальная дорожка , AAC / 2.0 / 160 Kbps / 48.0 KHz
    Аудио 3: Русский/Дублированный (Blu-ray CEE), AC-3 / 5.1 / 640 Kbps / 48.0 KHz
    Аудио 4: Английский/Оригинальная дорожка , AC-3 / 5.1 / 640 Kbps / 48.0 KHz
    Субтитры 1: Русские форсированные
    Субтитры 2: Украинские форсированные
    Субтитры 3: Русские полные
    Субтитры 4: Украинские полные
    Субтитры 5: Английские полные
    Субтитры 6: Английские SDH
    -

    iTunes Meta Tags

    Sort Name: Jason Bourne
    XID: Apple:vendor_id:2016-854942
    contentID: 1135595430
    Copyright: © 2016 Universal Studios. All Rights Reserved.
    Screenwriters: Пол Гринграсс, Кристофер Раус, Роберт Ладлэм
    Producers: Мэтт Дэймон, Грегори Гудман, Пол Гринграсс
    Director: Пол Гринграсс
    Cast: Мэтт Дэймон, Алисия Викандер, Джулия Стайлз, Томми Ли Джонс, Риз Ахмед, Венсан Кассель, Камиль Лемежевский, Билл Кэмп, Нив Гачев, Марк Энтони Джастис
    Studio: Universal Pictures
    Rating: 4
    Long Description: Мир на грани катастрофы, а значит пришло время ему вернуться. Неаполь, Мюнхен, Нью-Йорк - его имя знают повсюду. Элитный суперагент, лучший из лучших, даже в Лас-Вегасе игра пойдет по его правилам. Он - Джейсон Борн.
    Description: Мир на грани катастрофы, а значит пришло время ему вернуться. Неаполь, Мюнхен, Нью-Йорк - его имя знают повсюду. Элитный суперагент, лучший из лучших, даже в Лас-Вегасе игра пойдет по его правилам. Он - Джейсон Борн.
    Release Date: 2016-07-27T08:00:00Z
    Genre: Action & Adventure
    Artist: Paul Greengrass
    Name: Jason Bourne

    MediaInfo

    General
    Complete name : /Users/imac/HandBrake/Jason Bourne (2016) (1080p HD).m4v
    Format : MPEG-4
    Codec ID : M4V
    File size : 8.27 GiB
    Duration : 2h 3mn
    Overall bit rate mode : Variable
    Overall bit rate : 9 606 Kbps
    Movie name : Jason Bourne
    Performer : Paul Greengrass
    Director : Пол Гринграсс
    Actor : Мэтт Дэймон / Алисия Викандер / Джулия Стайлз / Томми Ли Джонс / Риз Ахмед / Венсан Кассель / Камиль Лемежевский / Билл Кэмп / Нив Гачев / Марк Энтони Джастис
    Screenplay by : Пол Гринграсс / Кристофер Раус / Роберт Ладлэм
    Producer : Мэтт Дэймон / Грегори Гудман / Пол Гринграсс
    Production studio : Universal Pictures
    Genre : Action & Adventure
    ContentType : Short Film
    Description : Мир на грани катастрофы, а значит пришло время ему вернуться. Неаполь, Мюнхен, Нью-Йорк - его имя знают повсюду. Элитный суперагент, лучший из лучших, даже в Лас-Вегасе игра пойдет по его правилам. Он - Джейсон Борн.
    Recorded date : UTC 2016-07-27 08:00:00
    Encoded date : UTC 2016-11-19 08:59:45
    Tagged date : UTC 2016-11-19 09:03:29
    Copyright : © 2016 Universal Studios. All Rights Reserved.
    Cover : Yes
    Rating : None
    Title/Sort : Jason Bourne
    LongDescription : Мир на грани катастрофы, а значит пришло время ему вернуться. Неаполь, Мюнхен, Нью-Йорк - его имя знают повсюду. Элитный суперагент, лучший из лучших, даже в Лас-Вегасе игра пойдет по его правилам. Он - Джейсон Борн.
    AppleStoreCatalogID : 1135595430
    Vendor : Apple:vendor_id:2016-854942
    ContentRating : mpaa|PG-13|300|
    Video #1
    ID : 1
    Format : AVC
    Format/Info : Advanced Video Codec
    Format profile : High@L4
    Format settings, CABAC : Yes
    Format settings, ReFrames : 4 frames
    Codec ID : avc1
    Codec ID/Info : Advanced Video Coding
    Duration : 2h 3mn
    Source duration : 2h 3mn
    Bit rate : 8 000 Kbps
    Width : 1 920 pixels
    Height : 800 pixels
    Display aspect ratio : 2.40:1
    Frame rate mode : Variable
    Frame rate : 23.976 fps
    Minimum frame rate : 23.810 fps
    Maximum frame rate : 24.272 fps
    Color space : YUV
    Chroma subsampling : 4:2:0
    Bit depth : 8 bits
    Scan type : Progressive
    Bits/(Pixel*Frame) : 0.217
    Stream size : 6.88 GiB (83%)
    Source stream size : 6.88 GiB (83%)
    Title : Main Program
    Writing library : x264 core 142 r2479 dd79a61
    Encoding settings : cabac=1 / ref=4 / deblock=1:-2:-2 / analyse=0x3:0x133 / me=umh / subme=10 / psy=1 / psy_rd=1.00:0.15 / mixed_ref=1 / me_range=32 / chroma_me=1 / trellis=2 / 8x8dct=1 / cqm=0 / deadzone=21,11 / fast_pskip=0 / chroma_qp_offset=-3 / threads=36 / lookahead_threads=6 / sliced_threads=0 / nr=0 / decimate=0 / interlaced=0 / bluray_compat=0 / constrained_intra=0 / bframes=16 / b_pyramid=2 / b_adapt=2 / b_bias=0 / direct=3 / weightb=1 / open_gop=0 / weightp=2 / keyint=240 / keyint_min=24 / scenecut=40 / intra_refresh=0 / rc_lookahead=60 / rc=2pass / mbtree=1 / bitrate=8000 / ratetol=1.0 / qcomp=0.70 / qpmin=0 / qpmax=69 / qpstep=4 / cplxblur=20.0 / qblur=0.5 / vbv_maxrate=25000 / vbv_bufsize=25000 / nal_hrd=none / filler=0 / ip_ratio=1.40 / aq=1:1.00
    Language : English
    Encoded date : UTC 2016-11-19 08:59:45
    Tagged date : UTC 2016-11-19 09:00:38
    Color range : Limited
    Color primaries : BT.709
    Transfer characteristics : BT.709
    Matrix coefficients : BT.709
    Video #2
    ID : 13
    Format : JPEG
    Codec ID : jpeg
    Duration : 2h 3mn
    Bit rate mode : Variable
    Bit rate : 1 145 bps
    Width : 640 pixels
    Height : 266 pixels
    Display aspect ratio : 2.40:1
    Frame rate mode : Variable
    Frame rate : 0.003 fps
    Minimum frame rate : 0.002 fps
    Maximum frame rate : 0.005 fps
    Color space : YUV
    Chroma subsampling : 4:2:0
    Bit depth : 8 bits
    Compression mode : Lossy
    Bits/(Pixel*Frame) : 2.242
    Stream size : 932 KiB (0%)
    Title : Chapter Images
    Language : English
    Encoded date : UTC 2016-11-19 09:00:51
    Tagged date : UTC 2016-11-19 09:00:51
    Audio #1
    ID : 2
    Format : AAC
    Format/Info : Advanced Audio Codec
    Format profile : LC
    Codec ID : 40
    Duration : 2h 3mn
    Bit rate mode : Variable
    Bit rate : 160 Kbps
    Maximum bit rate : 238 Kbps
    Channel(s) : 2 channels
    Channel positions : Front: L R
    Sampling rate : 48.0 KHz
    Compression mode : Lossy
    Stream size : 141 MiB (2%)
    Title : Russian Stereo
    Language : Russian
    Encoded date : UTC 2016-11-19 08:59:45
    Tagged date : UTC 2016-11-19 09:00:42
    Audio #2
    ID : 3
    Format : AAC
    Format/Info : Advanced Audio Codec
    Format profile : LC
    Codec ID : 40
    Duration : 2h 3mn
    Bit rate mode : Variable
    Bit rate : 160 Kbps
    Maximum bit rate : 231 Kbps
    Channel(s) : 2 channels
    Channel positions : Front: L R
    Sampling rate : 48.0 KHz
    Compression mode : Lossy
    Stream size : 141 MiB (2%)
    Title : English Stereo
    Language : English
    Encoded date : UTC 2016-11-19 08:59:45
    Tagged date : UTC 2016-11-19 09:00:42
    Audio #3
    ID : 4
    Format : AC-3
    Format/Info : Audio Coding 3
    Mode extension : CM (complete main)
    Format settings, Endianness : Big
    Codec ID : ac-3
    Duration : 2h 3mn
    Bit rate mode : Constant
    Bit rate : 640 Kbps
    Channel(s) : 6 channels
    Channel positions : Front: L C R, Side: L R, LFE
    Sampling rate : 48.0 KHz
    Bit depth : 16 bits
    Compression mode : Lossy
    Stream size : 564 MiB (7%)
    Title : Russian DD 5.1
    Language : Russian
    Encoded date : UTC 2016-11-19 08:59:45
    Tagged date : UTC 2016-11-19 09:00:40
    Audio #4
    ID : 5
    Format : AC-3
    Format/Info : Audio Coding 3
    Mode extension : CM (complete main)
    Format settings, Endianness : Big
    Codec ID : ac-3
    Duration : 2h 3mn
    Bit rate mode : Constant
    Bit rate : 640 Kbps
    Channel(s) : 6 channels
    Channel positions : Front: L C R, Side: L R, LFE
    Sampling rate : 48.0 KHz
    Bit depth : 16 bits
    Compression mode : Lossy
    Stream size : 564 MiB (7%)
    Title : English DD 5.1
    Language : English
    Encoded date : UTC 2016-11-19 08:59:45
    Tagged date : UTC 2016-11-19 09:00:40
    Text #1
    ID : 6
    Format : Timed Text
    Muxing mode : sbtl
    Codec ID : tx3g
    Duration : 1h 52mn
    Bit rate mode : Variable
    Bit rate : 3 bps
    Stream size : 2.14 KiB (0%)
    Title : Russian forced
    Language : Russian
    Encoded date : UTC 2016-11-19 08:59:45
    Tagged date : UTC 2016-11-19 08:59:46
    Text #2
    ID : 7
    Format : Timed Text
    Muxing mode : sbtl
    Codec ID : tx3g
    Duration : 1h 52mn
    Bit rate mode : Variable
    Bit rate : 3 bps
    Stream size : 2.35 KiB (0%)
    Title : Ukrainian orced
    Language : Ukrainian
    Encoded date : UTC 2016-11-19 08:59:45
    Tagged date : UTC 2016-11-19 08:59:46
    Text #3
    ID : 8
    Format : Timed Text
    Muxing mode : sbtl
    Codec ID : tx3g
    Duration : 1h 53mn
    Bit rate mode : Variable
    Bit rate : 70 bps
    Stream size : 58.0 KiB (0%)
    Title : Russian full
    Language : Russian
    Encoded date : UTC 2016-11-19 08:59:45
    Tagged date : UTC 2016-11-19 08:59:47
    Text #4
    ID : 9
    Format : Timed Text
    Muxing mode : sbtl
    Codec ID : tx3g
    Duration : 1h 53mn
    Bit rate mode : Variable
    Bit rate : 75 bps
    Stream size : 62.7 KiB (0%)
    Title : Ukrainian full
    Language : Ukrainian
    Encoded date : UTC 2016-11-19 08:59:45
    Tagged date : UTC 2016-11-19 08:59:47
    Text #5
    ID : 10
    Format : Timed Text
    Muxing mode : sbtl
    Codec ID : tx3g
    Duration : 1h 53mn
    Bit rate mode : Variable
    Bit rate : 43 bps
    Stream size : 35.7 KiB (0%)
    Title : English full
    Language : English
    Encoded date : UTC 2016-11-19 08:59:45
    Tagged date : UTC 2016-11-19 08:59:48
    Text #6
    ID : 11
    Format : Timed Text
    Muxing mode : sbtl
    Codec ID : tx3g
    Duration : 1h 53mn
    Bit rate mode : Variable
    Bit rate : 49 bps
    Stream size : 41.2 KiB (0%)
    Title : English SDH
    Language : English
    Encoded date : UTC 2016-11-19 08:59:45
    Tagged date : UTC 2016-11-19 08:59:49
    Menu #1
    00:00:00.000 : Chapter 1
    00:04:04.661 : Chapter 2
    00:08:21.543 : Chapter 3
    00:13:32.687 : Chapter 4
    00:18:28.316 : Chapter 5
    00:24:07.237 : Chapter 6
    00:29:21.259 : Chapter 7
    00:36:15.548 : Chapter 8
    00:42:20.663 : Chapter 9
    00:48:22.441 : Chapter 10
    00:55:12.184 : Chapter 11
    01:01:09.666 : Chapter 12
    01:08:32.483 : Chapter 13
    01:16:23.329 : Chapter 14
    01:24:45.330 : Chapter 15
    01:29:06.550 : Chapter 16
    01:37:52.909 : Chapter 17
    01:44:26.343 : Chapter 18
    01:48:03.727 : Chapter 19
    01:54:01.209 : Chapter 20
    Menu #2
    ID : 12
    Codec ID : text
    Duration : 2h 3mn
    Language : English
    Encoded date : UTC 2016-11-19 09:00:42
    Tagged date : UTC 2016-11-19 09:00:42
    00:00:00.000 : Chapter 1
    00:04:04.661 : Chapter 2
    00:08:21.543 : Chapter 3
    00:13:32.687 : Chapter 4
    00:18:28.316 : Chapter 5
    00:24:07.237 : Chapter 6
    00:29:21.259 : Chapter 7
    00:36:15.548 : Chapter 8
    00:42:20.663 : Chapter 9
    00:48:22.441 : Chapter 10
    00:55:12.184 : Chapter 11
    01:01:09.666 : Chapter 12
    01:08:32.483 : Chapter 13
    01:16:23.329 : Chapter 14
    01:24:45.330 : Chapter 15
    01:29:06.550 : Chapter 16
    01:37:52.909 : Chapter 17
    01:44:26.343 : Chapter 18
    01:48:03.727 : Chapter 19
    01:54:01.209 : Chapter 20
    Bit rate mode : VBR

    x264 лог

    x264 [info]: frame I:909   Avg QP:17.63  size:136791
    x264 [info]: frame P:57826 Avg QP:20.11  size: 56620
    x264 [info]: frame B:118486 Avg QP:21.16  size: 33661
    x264 [info]: consecutive B-frames:  9.2% 11.8% 19.4% 17.1% 14.1% 22.2%  3.2%  0.6%  0.6%  0.6%  0.3%  0.2%  0.2%  0.1%  0.0%  0.0%  0.3%
    x264 [info]: mb I  I16..4: 13.3% 78.1%  8.6%
    x264 [info]: mb P  I16..4:  5.7% 19.7%  1.2%  P16..4: 46.5% 12.2%  7.9%  0.1%  0.1%    skip: 6.6%
    x264 [info]: mb B  I16..4:  0.4%  3.0%  0.1%  B16..8: 44.9%  9.2%  2.1%  direct: 9.7%  skip:30.7%  L0:44.8% L1:48.7% BI: 6.5%
    x264 [info]: 8x8 transform intra:76.9% inter:72.0%
    x264 [info]: direct mvs  spatial:98.9% temporal:1.1%
    x264 [info]: coded y,uvDC,uvAC intra: 75.6% 77.1% 55.4% inter: 34.3% 37.1% 14.2%
    x264 [info]: i16 v,h,dc,p: 37% 18% 11% 34%
    x264 [info]: i8 v,h,dc,ddl,ddr,vr,hd,vl,hu:  7%  8% 11% 11% 14% 12% 13% 11% 12%
    x264 [info]: i4 v,h,dc,ddl,ddr,vr,hd,vl,hu:  9% 14%  6%  9% 14% 12% 14%  9% 13%
    x264 [info]: i8c dc,h,v,p: 46% 22% 17% 16%
    x264 [info]: Weighted P-Frames: Y:2.8% UV:1.5%
    x264 [info]: ref P L0: 54.5%  8.2% 22.5% 11.3%  3.4%  0.1%
    x264 [info]: ref B L0: 82.8% 14.2%  3.0%
    x264 [info]: ref B L1: 91.3%  8.7%
    x264 [info]: kb/s:7994.77

    Скриншоты

    -

    Релиз подготовлен для просмотра на Apple TV, iPad, iPhone, iPod Touch.
    Для просмотра данного релиза на компьютере с ОС Windows рекомендуется использовать VLC media player
    Скачать .torrent

    Скачать торрент-файл бесплатно и на максимальной скорости!

    Как скачивать? · Что такое торрент? · Рейтинг и ограничения

    !ВНИМАНИЕ!
    Сайт не распространяет и не хранит электронные версии произведений, а занимается лишь лишь предоставлением доступа к создаваемому пользователями каталогу ссылок на торрент-файлы, которые содержат только списки хеш-сумм, убедительная просьба с жалобами обращаться напрямую к пользователю. Файлы для обмена на трекере предоставлены пользователями сайта, и администрация не несёт ответственности за их содержание. Просьба не заливать файлы, защищенные авторскими правами, а также файлы нелегального содержания!


    _________________
    [Профиль] [ЛС]
    Показать сообщения:    
    Ответить на тему

    Текущее время: Сегодня, в 16:38

    Часовой пояс: GMT + 2



    Вы не можете начинать темы
    Вы не можете отвечать на сообщения
    Вы не можете редактировать свои сообщения
    Вы не можете удалять свои сообщения
    Вы не можете голосовать в опросах
    Вы не можете прикреплять файлы к сообщениям
    Вы не можете скачивать файлы