BitTorrentTracker PerecTracker.org
BitTorrentTracker PerecTracker.org
    
Регистрация  ·  Вход
 
 · 
Забыли пароль?

  • Завтра / Demain? (Кристина Лорен / Christine Laurent) [2011, Франция, Португалия, биографический, драма, DVB-AVC] MVO (Kino Polska)

    Ответить на тему
     
    Автор Сообщение

    Light

    Создавать темы 05-Июл-2015 21:53

           

    [Цитировать]

    Завтра
    Demain?-Страна: Франция, Португалия
    Жанр: биографический, драма
    Год выпуска: 2011
    Продолжительность: 01:39:33Перевод: Профессиональный (многоголосый закадровый) по заказу Kino Polska на производственно-технической базе Студии "Акцент"
    Cубтитры: нет
    Режиссер: Кристина Лорен / Christine Laurent
    В ролях: Лор де Клермон-Тоннерр / Laure de Clermont-Tonnerre (Delmira Agustini), Марк Рюшманн / Marc Ruchmann (Reys), Тереза Мадруга / Teresa Madruga (Doña Maria Agustini), Адриано Лус / Adriano Luz (Santiago Agustini), Беатрис Батарда / Beatriz Batarda (Eugénia)
    Описание: Биографический фильм о последних годах жизни и трагической смерти уругвайской поэтессы Дельмиры Агустини (1886-1914). Поэтесса сосредоточилась на теме женской сексуальности, хотя в то время в литературном мире господствовали мужчины. Её стиль творчества лучше всего охарактеризовать как первую фазу модернизма с темами, основанными на фантастических и экзотических предметах. Была застрелена бывшим мужем после развода.
    Доп. информация: Filmbox Arthouse IPTV
    Награды: 4 номинации Festival International du Film de la Roche-sur-Yon 2011 (приз международного жюри, специальный приз, приз кинопрессы, приз зрительских симпатий).

    Качество видео: DVB-AVC
    Формат видео: MKV
    Видео: AVC (H.264), 720x576@1024x576 (16:9), 25 fps, ~582 kbps avg, 0.062 bit/pixel
    Аудио: MPEG Audio 2, 2 ch, 48 kHz, ~128.00 kbps avg

    MediaInfo

    ОбщееУникальный идентификатор : 226942078422147907202445211157228492863 (0xAABB7456AB598CD98C5B8423856D183F)Полное имя : F:\My Torrents 3\[apreder]Demain(2011)DVB.mkvФормат : MatroskaВерсия формата : Version 2Размер файла : 516 МбайтПродолжительность : 1 ч. 39 м.Общий поток : 725 Кбит/секДата кодирования : UTC 2015-07-04 15:49:15Программа кодирования : mkvmerge v8.1.0 ('Psychedelic Postcard') 64bitБиблиотека кодирования : libebml v1.3.1 + libmatroska v1.4.2Attachements : cover.jpg / cover_sample.jpg
    ВидеоИдентификатор : 2Формат : AVCФормат/Информация : Advanced Video CodecПрофиль формата : Main@L3Параметр CABAC формата : ДаПараметр ReFrames формата : 3 кадраИдентификатор кодека : V_MPEG4/ISO/AVCПродолжительность : 1 ч. 39 м.Битрейт : 582 Кбит/секШирина : 720 пикселейВысота : 576 пикселейСоотношение сторон : 16:9Соотношение сторон в оригинале : 16:9Режим частоты кадров : ПостоянныйЧастота кадров : 22,727 кадра/секЧастота кадров в оригинале : 25,000 кадров/секСтандарт вещания : ComponentЦветовое пространство : YUVСубдискретизация насыщенности : 4:2:0Битовая глубина : 8 битТип развёртки : ЧересстрочнаяПорядок развёртки : Верхнее поле первоеБит/(Пиксели*Кадры) : 0.062Размер потока : 415 Мбайт (80%)Default : ДаForced : Нетcolour_range : LimitedОсновные цвета : BT.601 PALХарактеристики трансфера : BT.470 System B, BT.470 System GКоэффициенты матрицы : BT.601
    АудиоИдентификатор : 1Формат : MPEG AudioВерсия формата : Version 1Профиль формата : Layer 2Идентификатор кодека : A_MPEG/L2Идентификатор кодека/Подсказка : MP2Продолжительность : 1 ч. 39 м.Вид битрейта : ПостоянныйБитрейт : 128 Кбит/секКаналы : 2 каналаЧастота : 48,0 КГцМетод сжатия : С потерямиЗадержка видео : -7 мс.Размер потока : 91,2 Мбайт (18%)Язык : RussianDefault : ДаForced : Нет

    Скриншот c названием фильма

    Скриншоты

    Резервные скриншоты


    -[2'423]
    Скачать .torrent

    Скачать торрент-файл бесплатно и на максимальной скорости!

    Как скачивать? · Что такое торрент? · Рейтинг и ограничения

    !ВНИМАНИЕ!
    Сайт не распространяет и не хранит электронные версии произведений, а занимается лишь лишь предоставлением доступа к создаваемому пользователями каталогу ссылок на торрент-файлы, которые содержат только списки хеш-сумм, убедительная просьба с жалобами обращаться напрямую к пользователю. Файлы для обмена на трекере предоставлены пользователями сайта, и администрация не несёт ответственности за их содержание. Просьба не заливать файлы, защищенные авторскими правами, а также файлы нелегального содержания!


    _________________
    [Профиль] [ЛС]
    Показать сообщения:    
    Ответить на тему

    Текущее время: Сегодня, в 00:09

    Часовой пояс: GMT + 2



    Вы не можете начинать темы
    Вы не можете отвечать на сообщения
    Вы не можете редактировать свои сообщения
    Вы не можете удалять свои сообщения
    Вы не можете голосовать в опросах
    Вы не можете прикреплять файлы к сообщениям
    Вы не можете скачивать файлы