BitTorrentTracker PerecTracker.org
BitTorrentTracker PerecTracker.org
    
Регистрация  ·  Вход
 
 · 
Забыли пароль?

  • Слишком грубо для Ю-Тюба / Надто грубо для Ю-Тюба. Выпуск №98 (2013) SATRip [RUS/UKR]

    Ответить на тему
     
    Автор Сообщение

    rechyn

    Создавать темы 19-Ноя-2016 04:41

           

    [Цитировать]

    - Слишком грубо для Ю-Тюба / Надто грубо для Ю-Тюба. Выпуск № (2013) SATRip [RUS/UKR]-Режиссер / Телекомпания: ТЕТ
    Русское название: Слишком грубо для Ю-Тюба
    Оригинальное название: Надто грубо для Ю-Тюба
    Год выпуска: 2013
    Жанр: Юмор, эротическое шоу
    Описание:
    Все самое смешное из сети, Собрано в одной телепрограмме. Разве мы задумываемся над собственным поведением, когда кажется, что нас никто не видит? Кто-то представляет себя Майклом Джексоном во время поездки в лифте. А кто-то в примерочной магазина представляет себя супермоделью на подиуме. Как бы вы отреагировали, если бы узнали, что за вами наблюдают в этот момент? Наверно, покраснели бы от стыда. А если бы кто-то из "доброжелателей" снял ваши выкрутасы на видео и сделал звездой YouTube? Все смешное из сети собрано в одну телепрограмму. Бессмысленные случайности и крутые приколы. Иногда на это просто стыдно смотреть. Но так уже случается, что скрытые камеры встречаются в самых неожиданных местах.
    Продолжительность: ~ 00:21:58
    Видеокодек: XVID
    Битрейт видео: ~2000 kb/s
    Размер кадра: 720 x 400
    Качество видео: SATRip
    Аудиокодек: MP3, 2ch.
    Битрейт аудио: 192 kb/s

    MediaInfo

    Формат : AVI
    Формат/Информация : Audio Video Interleave
    Размер файла : 346 Мбайт
    Продолжительность : 21 м.
    Общий поток : 2202 Кбит/сек
    Программа кодирования : VirtualDubModRus 1.5.10.2 (build 2542/release)
    Библиотека кодирования : VirtualDubMod build 2542/release
    Видео
    Идентификатор : 0
    Формат : MPEG-4 Visual
    Профиль формата : Advanced Simple@L5
    Параметр BVOP формата : 2
    Параметр QPel формата : Нет
    Параметр GMC формата : Без точки перехода
    Параметр матрицы формата : Default (H.263)
    Режим смешивания : Сжатый битовый поток
    Идентификатор кодека : XVID
    Идентификатор кодека/Подсказка : XviD
    Продолжительность : 21 м.
    Битрейт : 2000 Кбит/сек
    Ширина : 720 пикселей
    Высота : 400 пикселей
    Соотношение сторон : 16:9
    Частота кадров : 25,000 кадров/сек
    Цветовое пространство : YUV
    Субдискретизация насыщенности : 4:2:0
    Битовая глубина : 8 бит
    Тип развёртки : Прогрессивная
    Метод сжатия : С потерями
    Бит/(Пиксели*Кадры) : 0.278
    Размер потока : 314 Мбайт (91%)
    Библиотека кодирования : XviD 64
    Аудио
    Идентификатор : 1
    Формат : MPEG Audio
    Версия формата : Version 1
    Профиль формата : Layer 3
    Режим : Joint stereo
    Идентификатор кодека : 55
    Идентификатор кодека/Подсказка : MP3
    Продолжительность : 21 м.
    Вид битрейта : Постоянный
    Битрейт : 192 Кбит/сек
    Каналы : 2 канала
    Частота : 48,0 КГц
    Метод сжатия : С потерями
    Размер потока : 30,2 Мбайт (9%)
    Выравнивание : Разделение по промежуткам
    Продолжительность промежутка : 40 мс. (1,00 видеокадр)
    Время предзагрузки промежутка : 500 мс.
    Скриншоты:
    Скачать .torrent

    Скачать торрент-файл бесплатно и на максимальной скорости!

    Как скачивать? · Что такое торрент? · Рейтинг и ограничения

    !ВНИМАНИЕ!
    Сайт не распространяет и не хранит электронные версии произведений, а занимается лишь лишь предоставлением доступа к создаваемому пользователями каталогу ссылок на торрент-файлы, которые содержат только списки хеш-сумм, убедительная просьба с жалобами обращаться напрямую к пользователю. Файлы для обмена на трекере предоставлены пользователями сайта, и администрация не несёт ответственности за их содержание. Просьба не заливать файлы, защищенные авторскими правами, а также файлы нелегального содержания!


    _________________
    [Профиль] [ЛС]
    Показать сообщения:    
    Ответить на тему

    Текущее время: Сегодня, в 18:25

    Часовой пояс: GMT + 2



    Вы не можете начинать темы
    Вы не можете отвечать на сообщения
    Вы не можете редактировать свои сообщения
    Вы не можете удалять свои сообщения
    Вы не можете голосовать в опросах
    Вы не можете прикреплять файлы к сообщениям
    Вы не можете скачивать файлы