BitTorrentTracker PerecTracker.org
BitTorrentTracker PerecTracker.org
    
Регистрация  ·  Вход
 
 · 
Забыли пароль?

  • Дурная лихорадка / Bad Fever (Дастин Гай Дефа / Dustin Guy Defa) [2012, США, драма, DVB-AVC] DVO (Kino Polska)

    Ответить на тему
     
    Автор Сообщение

    Light

    Создавать темы 05-Июл-2015 21:53

           

    [Цитировать]

    Дурная лихорадка
    Bad Fever-Страна: США
    Жанр: драма
    Год выпуска: 2012
    Продолжительность: 01:13:53Перевод: Профессиональный (двухголосый закадровый) по заказу Kino Polska на производственно-технической базе Студии "Акцент"
    Cубтитры: нет
    Режиссер: Дастин Гай Дефа / Dustin Guy Defa
    В ролях: Кентакер Одли / Kentucker Audley (Eddie), Элеонор Хендрикс / Eleonore Hendricks (Irene), Элисон Баар / Allison Baar (Yoko), Хэйворд Бачанан / Hayward Buchanan (Hank), Дастин Гай Дефа / Dustin Guy Defa (Larry)
    Описание: Эдди и Ирен ведут бродячую жизнь, запечатлевая ее на видеокассеты. Чтобы рассказать о своих истинных чувствах к Ирен, Эдди организует стендап-выступление в местном клубе…
    Доп. информация: Filmbox Arthouse IPTV
    Номинация на приз зрительских симпатий "Новый взгляд" SXSW Film Festival 2011.

    Качество видео: DVB-AVC
    Формат видео: MKV
    Видео: AVC (H.264), 720x576@1024x576 (16:9), 25 fps, ~637 kbps avg, 0.061 bit/pixel
    Аудио: MPEG Audio 2, 2 ch, 48 kHz, ~128.00 kbps avg

    MediaInfo

    ОбщееУникальный идентификатор : 213013761993891965714066184984791796860 (0xA040F551C6CC66E7A8BD9F4F2D02CC7C)Полное имя : F:\My Torrents 3\[apreder]Bad_Fever(2012)DVB.mkvФормат : MatroskaВерсия формата : Version 2Размер файла : 412 МбайтПродолжительность : 1 ч. 13 м.Общий поток : 780 Кбит/секДата кодирования : UTC 2015-07-04 16:28:22Программа кодирования : mkvmerge v8.1.0 ('Psychedelic Postcard') 64bitБиблиотека кодирования : libebml v1.3.1 + libmatroska v1.4.2Attachements : cover.jpg / cover_sample.jpg
    ВидеоИдентификатор : 2Формат : AVCФормат/Информация : Advanced Video CodecПрофиль формата : Main@L3Параметр CABAC формата : ДаПараметр ReFrames формата : 3 кадраИдентификатор кодека : V_MPEG4/ISO/AVCПродолжительность : 1 ч. 13 м.Битрейт : 637 Кбит/секШирина : 720 пикселейВысота : 576 пикселейСоотношение сторон : 16:9Соотношение сторон в оригинале : 16:9Режим частоты кадров : ПостоянныйЧастота кадров : 25,000 кадров/секСтандарт вещания : ComponentЦветовое пространство : YUVСубдискретизация насыщенности : 4:2:0Битовая глубина : 8 битТип развёртки : ПрогрессивнаяПорядок развёртки : Верхнее поле первоеБит/(Пиксели*Кадры) : 0.061Размер потока : 337 Мбайт (82%)Default : ДаForced : Нетcolour_range : LimitedОсновные цвета : BT.601 PALХарактеристики трансфера : BT.470 System B, BT.470 System GКоэффициенты матрицы : BT.601
    АудиоИдентификатор : 1Формат : MPEG AudioВерсия формата : Version 1Профиль формата : Layer 2Идентификатор кодека : A_MPEG/L2Идентификатор кодека/Подсказка : MP2Продолжительность : 1 ч. 13 м.Вид битрейта : ПостоянныйБитрейт : 128 Кбит/секКаналы : 2 каналаЧастота : 48,0 КГцМетод сжатия : С потерямиЗадержка видео : -18 мс.Размер потока : 67,6 Мбайт (16%)Язык : RussianDefault : ДаForced : Нет

    Скриншот c названием фильма

    Скриншоты

    Резервные скриншоты


    -[2'424]
    Скачать .torrent

    Скачать торрент-файл бесплатно и на максимальной скорости!

    Как скачивать? · Что такое торрент? · Рейтинг и ограничения

    !ВНИМАНИЕ!
    Сайт не распространяет и не хранит электронные версии произведений, а занимается лишь лишь предоставлением доступа к создаваемому пользователями каталогу ссылок на торрент-файлы, которые содержат только списки хеш-сумм, убедительная просьба с жалобами обращаться напрямую к пользователю. Файлы для обмена на трекере предоставлены пользователями сайта, и администрация не несёт ответственности за их содержание. Просьба не заливать файлы, защищенные авторскими правами, а также файлы нелегального содержания!


    _________________
    [Профиль] [ЛС]
    Показать сообщения:    
    Ответить на тему

    Текущее время: Сегодня, в 12:16

    Часовой пояс: GMT + 2



    Вы не можете начинать темы
    Вы не можете отвечать на сообщения
    Вы не можете редактировать свои сообщения
    Вы не можете удалять свои сообщения
    Вы не можете голосовать в опросах
    Вы не можете прикреплять файлы к сообщениям
    Вы не можете скачивать файлы