BitTorrentTracker PerecTracker.org
BitTorrentTracker PerecTracker.org
    
Регистрация  ·  Вход
 
 · 
Забыли пароль?

  • Страна У / Країна У (Сезон 2, Серии 1-40 из 40) (2014) SATRip [RUS/UKR]

    Ответить на тему
     
    Автор Сообщение

    rechyn

    Создавать темы 19-Ноя-2016 04:41

           

    [Цитировать]

    -Страна У / Країна У (Сезон 2, Серии 1-40 из 40) (2014) SATRip [RUS/UKR] -Режиссер / Телекомпания: Студия Квартал-95
    Год выпуска: 2014
    Жанр: Комедия, скетчком
    Описание:
    «Страна У» – скетчком о жизни людей в разных регионах Украины. «У» - естественно, Украина. Мы постоянно Учимся жить, Учимся на собственных ошибках, не забывая Учить других.Мы – Уникальный и Универсальный народ! Мы – «Страна У»!
    Мы – разные: одни на западе, другие на востоке, третьи на юге, четвёртые в центре. Но нас объединяют общие житейские проблемы. А еще больше нас объединяет способность смеяться над собой, в каком бы городе страны «У» мы не жили. И каждый наш город – уникален по-своему!
    В первом цикле передач мы знакомимся с городами: Киев, Днепропетровск, Тернополь, Николаев, Симферополь, Харьков, а также с безымянным селом в Полтавской области.
    В роли жителей этих городов – популярные украинские КВНщики, представляющие известные команды КВН: Игорь Ласточкин, Владимир Борисов и Юрий Ткач («Днепр», Днепропетровск), Дарья Кобякова и Кристина Понунаева («Сборная Блондинок Украины», Харьков), Чингис Мазинов, Рустем Эмирсалиев, Сергей Бибилов и Илья Дерменжи («Остров Крым», Симферополь), Тарас Стадницкий и Татьяна Песик («VIP – Тернополь»), Евгений Косниковский, Олег Сёмин и Юлия Мотрук («Сборная Портовых Городов», Николаев – Южный), Ирина Сопонару («Винницкие перцы»).
    «Страна У» – это новый проект в формате юмористического скетч-шоу производства «Квартала 95» и «Драйв Продакшн». Креативным продюсером проекта выступил Андрей Чивурин.
    К производству «Страны У» привлечены лучшие силы молодого юмора страны. Творческий потенциал проекта – это выходцы из украинского КВН, среди которых есть как знакомые, так и пока неизвестные широкому зрителю лица.
    Продолжительность: 40x ~00:26:00
    Качество видео: SATRip
    Видеокодек: Xvid
    Битрейт видео: ~1750 кб/с
    Размер кадра: 720x400
    Аудиокодек: MP3 2.0
    Битрейт аудио: 192 кб/с
    Релиз:

    MI

    General
    Complete name : F:\Films\TV Show\Страна У (Сезон 2) (2014)\Страна У-2.(01.seriya).2014.XviD.SATRip.by.simka.avi
    Format : AVI
    Format/Info : Audio Video Interleave
    File size : 301 MiB
    Duration : 23mn 59s
    Overall bit rate : 1 752 Kbps
    Writing application : VirtualDubMod 1.5.10.3 | (build 2550/release)
    Writing library : VirtualDubMod build 2550/release
    Video
    ID : 0
    Format : MPEG-4 Visual
    Format profile : Advanced Simple@L5
    Format settings, BVOP : 1
    Format settings, QPel : No
    Format settings, GMC : No warppoints
    Format settings, Matrix : Default (MPEG)
    Codec ID : XVID
    Codec ID/Hint : XviD
    Duration : 23mn 59s
    Bit rate : 1 550 Kbps
    Width : 720 pixels
    Height : 400 pixels
    Display aspect ratio : 16:9
    Frame rate : 25.000 fps
    Color space : YUV
    Chroma subsampling : 4:2:0
    Bit depth : 8 bits
    Scan type : Progressive
    Compression mode : Lossy
    Bits/(Pixel*Frame) : 0.215
    Stream size : 266 MiB (88%)
    Writing library : XviD 1.2.1 (UTC 2008-12-04)
    Audio
    ID : 1
    Format : MPEG Audio
    Format version : Version 1
    Format profile : Layer 3
    Mode : Joint stereo
    Mode extension : MS Stereo
    Codec ID : 55
    Codec ID/Hint : MP3
    Duration : 23mn 59s
    Bit rate mode : Constant
    Bit rate : 192 Kbps
    Channel(s) : 2 channels
    Sampling rate : 48.0 KHz
    Compression mode : Lossy
    Stream size : 32.9 MiB (11%)
    Alignment : Aligned on interleaves
    Interleave, duration : 40 ms (1.00 video frame)
    Interleave, preload duration : 504 ms
    Writing library : LAME3.99r
    Encoding settings : -m j -V 4 -q 2 -lowpass 18.6 -b 192
    Скриншоты:
    ВСЕ РЕЛИЗЫ "Страна У"-Время раздачи: 24/7 (до первых 3-х скачавших, далее по возможности)
    Скачать .torrent

    Скачать торрент-файл бесплатно и на максимальной скорости!

    Как скачивать? · Что такое торрент? · Рейтинг и ограничения

    !ВНИМАНИЕ!
    Сайт не распространяет и не хранит электронные версии произведений, а занимается лишь лишь предоставлением доступа к создаваемому пользователями каталогу ссылок на торрент-файлы, которые содержат только списки хеш-сумм, убедительная просьба с жалобами обращаться напрямую к пользователю. Файлы для обмена на трекере предоставлены пользователями сайта, и администрация не несёт ответственности за их содержание. Просьба не заливать файлы, защищенные авторскими правами, а также файлы нелегального содержания!


    _________________
    [Профиль] [ЛС]
    Показать сообщения:    
    Ответить на тему

    Текущее время: Сегодня, в 20:08

    Часовой пояс: GMT + 2



    Вы не можете начинать темы
    Вы не можете отвечать на сообщения
    Вы не можете редактировать свои сообщения
    Вы не можете удалять свои сообщения
    Вы не можете голосовать в опросах
    Вы не можете прикреплять файлы к сообщениям
    Вы не можете скачивать файлы